Скачать через торрент Х*ёвый Апокалипсис X-Men: Apocalypse Фильм бесплатно в хорошем качестве torrent

Скачивайте на UnionPeer.org фильмы через торрент без регистрации. Новинки кино в хорошем качестве через торрент. На UnionPeer.org можно скачать через торрент фильмы 2014 и 2015 годов. Самые новые фильмы.

Скачать торрент Х*ёвый Апокалипсис X-Men: Apocalypse бесплатно через .torrent фильм мультфильм сериал

Если у вас наблюдаются проблемы со скриншотами, переходом по ссылками, скачиванием торрентов - проблемы в блокировщике рекламы AdBlock. #хорошегоДня!


Статистика раздачи
Размер:  2.2 GB   |    Зарегистрирован:  9 месяцев   |    .torrent скачан:  339 раз   |   
Раздают:  1  
   
Загрузка...
 
Автор Сообщение

Galfimbul

avatar Galfimbul


Х*ёвый Апокалипсис / X-Men: Apocalypse

Дата/Год выпуска: 2016
Страна: Россия\США
Жанр: импровизационный смешной перевод
Продолжительность: 02:23:56
Перевод: Авторский (одноголосый закадровый)
Доп. инфо о переводе: Сеня Флакон
Русские субтитры: нет

Режиссер: Сиплый\Брайан Сингер

Описание: Седьмая телега от нашего ТО. Отмороженные пацики из бригады академика с погонялом Профессор Икс наехали на Пахана всея Земли, который реально попутал понятия и решил замастрячить конкретную зону из всей планеты, а цивильных гавриков ваще в расход пустить.

Доп. информация: Как всегда, импровизация с ненормативной лексикой и дискриминацией всех, кто попался на глаза пацану у микрофона. Тока на этот раз пацан зазырил оригинальный фильм за пару дней до озвучки. Тем, кому не в масть такой загон, и вставляет тока озвучка по сценарию, а также ханжам и неадекватам смотреть запрещено.

Для тех, кому в масть или просто отдуплились, наши предыдущие озвучки:
<a href="viewtopic.php?t=5324467" class="postLink">Легенда о Марципане</a>
<a href="viewtopic.php?t=5310596" class="postLink">Трупак из бассейна</a>
<a href="viewtopic.php?t=5303869" class="postLink">Е*анашка в Стране Глюков</a>
<a href="viewtopic.php?t=5307296" class="postLink">Команда суицидников</a>
<a href="viewtopic.php?t=5301400" class="postLink">Тор 2: Царство тупой п*зды</a>
<a href="viewtopic.php?t=5297310" class="postLink">П*здец номер 9</a>


Сэмпл: https://yadi.sk/i/3jg0hV-c38WbtW

качество: BDRip
формат: AVI
Видео: XviD, 720x304, 2.35:1, 1 982 Kbps, 23.976 fps
Аудио: mp3, 192 Kbps, 44.1 KHz, 2 channels
ideoID : 0Format : MPEG-4 VisualFormat profile : Advanced Simple@L5Format settings, BVOP : 1Format settings, QPel : NoFormat settings, GMC : No warppointsFormat settings, Matrix : CustomCodec ID : XVIDCodec ID/Hint : XviDDuration : 2h 23mnBit rate : 1 982 KbpsWidth : 720 pixelsHeight : 304 pixelsDisplay aspect ratio : 2.35:1Frame rate : 23.976 fpsColor space : YUVChroma subsampling : 4:2:0Bit depth : 8 bitsScan type : ProgressiveCompression mode : LossyBits/(Pixel*Frame) : 0.378Stream size : 1.99 GiB (91%)Writing library : XviD 66

AudioID : 1Format : MPEG AudioFormat version : Version 1Format profile : Layer 3Codec ID : 55Codec ID/Hint : MP3Duration : 1h 30mnSource duration : 2h 23mnBit rate mode : ConstantBit rate : 192 KbpsChannel(s) : 2 channelsSampling rate : 44.1 KHzCompression mode : LossyStream size : 198 MiB (9%)Alignment : Aligned on interleavesInterleave, duration : 26 ms (0.63 video frame)


Трекер:  [ 12-Янв-2017 02:00 ]

  

Скачать .torrent

Размер .torrent файла 11 KB


Размер: 2.2 GB
Хэш (hash) релиза: d95da1be0bdfe99113eacffd4db39e932a660b76
Подписка на обновления:

Еще никто не оставлял запись к записи скачать торрент Х*ёвый Апокалипсис X-Men: Apocalypse . Будь первым!

!Обратная связь