Скачать через торрент [ATV3] Бегущая от реальности Complete Unknown бесплатно русская версия torrent активатор

Статистика раздачи
Размер:  3.68 GB   |    Зарегистрирован:  1 месяц 15 дней   |    .torrent скачан:  24 раза   |   
Раздают:  1  
   
 
Автор Сообщение

Galfimbul

avatar Galfimbul


<span class="post-font-serif1">Бегущая от реальности / Complete Unknown
«Загадочная история совершенно непредсказуемой женщины»

5.503 / 10 5.50 / 10
Год выпуска: 2016
Страна: США
Жанр: Драма, детектив
Продолжительность: 01:31:51

Перевод: Многоголосый закадровый (iTunes)
Оригинальная аудиодорожка: Есть
Cубтитры: Нет
Режиссёр: Джошуа Марстон
Сценарий: Джошуа Марстон, Джулиан Шеппард
Продюсер: Лукас Хоакин, Ларс Кнудсен, Джей Ван Хой
Оператор: Христос Вудурис
Композитор: Дэнни Бенси, Сондер Юрриаанс
Художник: Томмазо Ортино, Сет Уильямсон, Цейра Уэллс
Монтаж: Малкольм Джемисон
В ролях: Рэйчел Вайс, Майкл Шеннон, Кэти Бейтс, Дэнни Гловер, Кондола Рашад, Майкл Чернус, Эрин Майя Дарк, Гензель Тан, ФаТай, Зэк Аппельман

Сборы в США: $187 145
Сборы в России: $16 483

Мировая премьера: 25 января 2016
Премьера (РФ): 17 ноября 2016, «Russian World Vision»

Описание: Во время ужина в день своего рождения Том встречает среди гостей загадочную девушку по имени Элис. Том убежден, что они были знакомы и более чем близки, но таинственная гостья не признается и представляется совершенно другим человеком. Когда Элис сбегает, Том следует за ней, бросается в неизвестность. Вместе они становятся абсолютно свободными, анонимными, теряются в толпе мегаполиса. Эта полная приключений ночь — их шанс изменить жизнь…
Качество исходника: WEB-DL 1080p (HDClub)
Качество: WEB-DL
Тип: HD (1080p)
Контейнер: M4V
Видео: H.264, 1916x796, 2.40:1, 4 656 Kbps, 23.976 fps

Аудио 1: Русский/Многоголосый закадровый (iTunes), AAC / 2.0 / 160 Kbps / 48.0 KHz
Аудио 2: Английский/Оригинальная дорожка , AAC / 2.0 / 160 Kbps / 48.0 KHz
Аудио 3: Русский/Многоголосый закадровый (iTunes), AC-3 / 5.1 / 384 Kbps / 48.0 KHz
Аудио 4: Английский/Оригинальная дорожка , AC-3 / 5.1 / 384 Kbps / 48.0 KHz



</span>
Sort Name: Complete Unknown
XID: Apple:vendor_id:2016-857777
contentID: 1150727267
Copyright: © 2016 Heron Television Limited. All Rights Reserved.
Screenwriters: Джошуа Марстон, Джулиан Шеппард
Producers: Лукас Хоакин, Ларс Кнудсен, Джей Ван Хой
Director: Джошуа Марстон
Cast: Рэйчел Вайс, Майкл Шеннон, Кэти Бейтс, Дэнни Гловер, Кондола Рашад, Майкл Чернус, Эрин Майя Дарк, Гензель Тан, ФаТай, Зэк Аппельман
Studio: Amazon Studios
Rating: 5
Long Description: Во время ужина в день своего рождения Том встречает среди гостей загадочную девушку по имени Элис. Том убежден, что они были знакомы и более чем близки, но таинственная гостья не признается и представляется совершенно другим человеком. Когда Элис сбегает, Том следует за ней, бросается в неизвестность. Вместе они становятся абсолютно свободными, анонимными, теряются в толпе мегаполиса. Эта полная приключений ночь - их шанс изменить жизнь...
Description: Во время ужина в день своего рождения Том встречает среди гостей загадочную девушку по имени Элис. Том убежден, что они были знакомы и более чем близки, но таинственная гостья не признается и представляется совершенно другим человеком. Когда Элис сбегает, Том следует за ней, бросается в неизвестность. Вместе они становятся абсолютно свободными, анонимными, теряются в толпе мегаполиса. Эта полная приключений ночь - их шанс изменить жизнь...
Release Date: 2016-01-25T08:00:00Z
Genre: Drama
Artist: Joshua Marston
Name: Complete Unknown
General
Complete name : /Users/imac/HandBrake/Complete.Unknown.WEB-DL.1080p.m4v
Format : MPEG-4
Codec ID : M4V
File size : 3.68 GiB
Duration : 1h 31mn
Overall bit rate mode : Variable
Overall bit rate : 5 740 Kbps
Movie name : Complete Unknown
Performer : Joshua Marston
Director : Джошуа Марстон
Actor : Рэйчел Вайс / Майкл Шеннон / Кэти Бейтс / Дэнни Гловер / Кондола Рашад / Майкл Чернус / Эрин Майя Дарк / Гензель Тан / ФаТай / Зэк Аппельман
Screenplay by : Джошуа Марстон / Джулиан Шеппард
Producer : Лукас Хоакин / Ларс Кнудсен / Джей Ван Хой
Production studio : Amazon Studios
Genre : Drama
ContentType : Short Film
Description : Во время ужина в день своего рождения Том встречает среди гостей загадочную девушку по имени Элис. Том убежден, что они были знакомы и более чем близки, но таинственная гостья не признается и представляется совершенно другим человеком. Когда Элис сбегает, Том следует за ней, бросается в неизвестность. Вместе они становятся абсолютно свободными, анонимными, теряются в толпе мегаполиса. Эта полная приключений ночь - их шанс изменить жизнь...
Recorded date : UTC 2016-01-25 08:00:00
Encoded date : UTC 2017-01-11 22:55:48
Tagged date : UTC 2017-01-11 22:57:28
Copyright : © 2016 Heron Television Limited. All Rights Reserved.
Cover : Yes
Rating : None
Title/Sort : Complete Unknown
LongDescription : Во время ужина в день своего рождения Том встречает среди гостей загадочную девушку по имени Элис. Том убежден, что они были знакомы и более чем близки, но таинственная гостья не признается и представляется совершенно другим человеком. Когда Элис сбегает, Том следует за ней, бросается в неизвестность. Вместе они становятся абсолютно свободными, анонимными, теряются в толпе мегаполиса. Эта полная приключений ночь - их шанс изменить жизнь...
AppleStoreCatalogID : 1150727267
Vendor : Apple:vendor_id:2016-857777
ContentRating : mpaa|R|400|

Video #1
ID : 1
Format : AVC
Format/Info : Advanced Video Codec
Format profile : High@L4
Format settings, CABAC : Yes
Format settings, ReFrames : 5 frames
Codec ID : avc1
Codec ID/Info : Advanced Video Coding
Duration : 1h 31mn
Source duration : 1h 31mn
Bit rate : 4 656 Kbps
Width : 1 916 pixels
Height : 796 pixels
Display aspect ratio : 2.40:1
Frame rate mode : Variable
Frame rate : 23.976 fps
Minimum frame rate : 23.810 fps
Maximum frame rate : 24.390 fps
Color space : YUV
Chroma subsampling : 4:2:0
Bit depth : 8 bits
Scan type : Progressive
Bits/(Pixel*Frame) : 0.127
Stream size : 2.99 GiB (81%)
Source stream size : 2.99 GiB (81%)
Title : Main Program
Language : English
Encoded date : UTC 2017-01-11 22:55:48
Tagged date : UTC 2017-01-11 22:56:11
Color range : Limited
Color primaries : BT.709
Transfer characteristics : BT.709
Matrix coefficients : BT.709

Video #2
ID : 7
Format : JPEG
Codec ID : jpeg
Duration : 1h 31mn
Bit rate mode : Variable
Bit rate : 558 bps
Width : 640 pixels
Height : 265 pixels
Display aspect ratio : 2.40:1
Frame rate mode : Variable
Frame rate : 0.003 fps
Minimum frame rate : 0.002 fps
Maximum frame rate : 0.005 fps
Color space : YUV
Chroma subsampling : 4:2:0
Bit depth : 8 bits
Compression mode : Lossy
Bits/(Pixel*Frame) : 1.097
Stream size : 363 KiB (0%)
Title : Chapter Images
Language : English
Encoded date : UTC 2017-01-11 22:56:16
Tagged date : UTC 2017-01-11 22:56:17

Audio #1
ID : 2
Format : AAC
Format/Info : Advanced Audio Codec
Format profile : LC
Codec ID : 40
Duration : 1h 31mn
Bit rate mode : Variable
Bit rate : 157 Kbps
Maximum bit rate : 233 Kbps
Channel(s) : 2 channels
Channel positions : Front: L R
Sampling rate : 48.0 KHz
Compression mode : Lossy
Stream size : 103 MiB (3%)
Title : Russian Stereo
Language : Russian
Encoded date : UTC 2017-01-11 22:55:48
Tagged date : UTC 2017-01-11 22:56:11

Audio #2
ID : 3
Format : AAC
Format/Info : Advanced Audio Codec
Format profile : LC
Codec ID : 40
Duration : 1h 31mn
Bit rate mode : Variable
Bit rate : 159 Kbps
Maximum bit rate : 239 Kbps
Channel(s) : 2 channels
Channel positions : Front: L R
Sampling rate : 48.0 KHz
Compression mode : Lossy
Stream size : 98.2 MiB (3%)
Title : English Stereo
Language : English
Encoded date : UTC 2017-01-11 22:55:48
Tagged date : UTC 2017-01-11 22:55:54

Audio #3
ID : 4
Format : AC-3
Format/Info : Audio Coding 3
Mode extension : CM (complete main)
Format settings, Endianness : Big
Codec ID : ac-3
Duration : 1h 31mn
Bit rate mode : Constant
Bit rate : 384 Kbps
Channel(s) : 6 channels
Channel positions : Front: L C R, Side: L R, LFE
Sampling rate : 48.0 KHz
Bit depth : 16 bits
Compression mode : Lossy
Stream size : 252 MiB (7%)
Title : Russian DD 5.1
Language : Russian
Encoded date : UTC 2017-01-11 22:55:48
Tagged date : UTC 2017-01-11 22:56:11

Audio #4
ID : 5
Format : AC-3
Format/Info : Audio Coding 3
Mode extension : CM (complete main)
Format settings, Endianness : Big
Codec ID : ac-3
Duration : 1h 31mn
Bit rate mode : Constant
Bit rate : 384 Kbps
Channel(s) : 6 channels
Channel positions : Front: L C R, Side: L R, LFE
Sampling rate : 48.0 KHz
Bit depth : 16 bits
Compression mode : Lossy
Stream size : 252 MiB (7%)
Title : English DD 5.1
Language : English
Encoded date : UTC 2017-01-11 22:55:48
Tagged date : UTC 2017-01-11 22:56:11

Menu #1
00:00:00.000 : 1
00:05:43.718 : 2
00:12:03.139 : 3
00:21:40.841 : 4
00:25:51.007 : 5
00:31:48.364 : 6
00:35:30.711 : 7
00:39:08.512 : 8
00:42:23.415 : 9
00:46:53.226 : 10
00:51:19.116 : 11
01:00:57.903 : 12
01:07:48.897 : 13
01:12:29.802 : 14
01:19:22.589 : 15
01:23:49.272 : 16

Menu #2
ID : 6
Codec ID : text
Duration : 1h 31mn
Language : English
Encoded date : UTC 2017-01-11 22:56:11
Tagged date : UTC 2017-01-11 22:56:11
00:00:00.000 : 1
00:05:43.718 : 2
00:12:03.139 : 3
00:21:40.841 : 4
00:25:51.007 : 5
00:31:48.364 : 6
00:35:30.711 : 7
00:39:08.512 : 8
00:42:23.415 : 9
00:46:53.226 : 10
00:51:19.116 : 11
01:00:57.903 : 12
01:07:48.897 : 13
01:12:29.802 : 14
01:19:22.589 : 15
01:23:49.272 : 16
Bit rate mode : VBR

<span class="post-font-serif1">
Релиз подготовлен для просмотра на Apple TV, iPad, iPhone, <a href="www.apple.com/ipodtouch/" class="postLink">iPod Touch</a>.
Для просмотра данного релиза на компьютере с ОС Windows рекомендуется использовать VLC media player</span>

Трекер:  [ 12-Янв-2017 01:30 ]

  

Скачать .torrent

Размер .torrent файла 37 KB


Размер: 3.68 GB
Хэш (hash) релиза: a008406855f3d8cf72e06580c73a4c129a736a1a

Еще никто не оставлял запись к записи скачать торрент [ATV3] Бегущая от реальности Complete Unknown . Будь первым!

!Обратная связь