Скачать через торрент Гандбол Чемпионат Мира 2017 Фильм бесплатно в хорошем качестве torrent

Скачивайте на UnionPeer.org фильмы через торрент без регистрации. Новинки кино в хорошем качестве через торрент. На UnionPeer.org можно скачать через торрент фильмы 2014 и 2015 годов. Самые новые фильмы.

Скачать торрент Гандбол Чемпионат Мира 2017 бесплатно через .torrent фильм мультфильм сериал

Статистика раздачи
Размер:  6.08 GB   |    Зарегистрирован:  1 месяц 7 дней   |    .torrent скачан:  29 раз   |   
Раздают:  1  
   
 
Автор Сообщение

Galfimbul

avatar Galfimbul


<span class="post-font-sans1">Гандбол. Чемпионат Мира 2017. Мужчины
Группа A. Франция - Бразилия
</span>
Дата эфира: 11.01.2017
Вид спорта: Гандбол
Комментарий: Профессиональный
Язык комментариев: Русский
Описание: Гандбол / Чемпионат Мира 2017 / Мужчины / Группа A / Франция - Бразилия.
Автор рипа: music it's my life

Качество: HDTV
Формат: TS
Видео кодек: H.264
Аудио кодек: MP2
Видео: MPEG4 Video (H264) 1920x1080 (16:9) 25fps 10300kbps
Аудио 1: Dolby AC3 48000Hz stereo 448kbps
Аудио 2: MPEG Audio 48000Hz stereo 192kbps
01:15:27
Франция 30 - 16 Бразилия
GeneralID : 1 (0x1)Complete name : W:\раздачи\Гандбол. Чемпионат мира 2017. Мужчины. Франция - Бразилия.tsFormat : MPEG-TSFile size : 6.08 GiBDuration : 1 h 15 minOverall bit rate mode : VariableOverall bit rate : 11.5 Mb/s

VideoID : 322 (0x142)Menu ID : 12102 (0x2F46)Format : AVCFormat/Info : Advanced Video CodecFormat profile : High@L4Format settings, CABAC : YesFormat settings, ReFrames : 4 framesFormat settings, GOP : M=4, N=28Codec ID : 27Duration : 1 h 15 minBit rate : 10.3 Mb/sWidth : 1 920 pixelsHeight : 1 080 pixelsDisplay aspect ratio : 16:9Frame rate : 25.000 FPSStandard : ComponentColor space : YUVChroma subsampling : 4:2:0Bit depth : 8 bitsScan type : InterlacedScan type, store method : Separated fieldsScan order : Top Field FirstBits/(Pixel*Frame) : 0.199Stream size : 5.44 GiB (89%)Color range : LimitedColor primaries : BT.709Transfer characteristics : BT.709Matrix coefficients : BT.709

Audio #1ID : 402 (0x192)Menu ID : 12102 (0x2F46)Format : AC-3Format/Info : Audio Coding 3Mode extension : CM (complete main)Format settings, Endianness : BigCodec ID : 6Duration : 1 h 15 minBit rate mode : ConstantBit rate : 448 kb/sChannel(s) : 2 channelsChannel positions : Front: L RSampling rate : 48.0 kHzFrame rate : 31.250 FPS (1536 spf)Bit depth : 16 bitsCompression mode : LossyStream size : 242 MiB (4%)Language : Russian

Audio #2ID : 403 (0x193)Menu ID : 12102 (0x2F46)Format : MPEG AudioFormat version : Version 1Format profile : Layer 2Codec ID : 3Duration : 1 h 15 minBit rate mode : ConstantBit rate : 192 kb/sChannel(s) : 2 channelsSampling rate : 48.0 kHzCompression mode : LossyStream size : 104 MiB (2%)Language : Russian


Трекер:  [ 12-Янв-2017 00:30 ]

  

Скачать .torrent

Размер .torrent файла 31 KB


Размер: 6.08 GB
Хэш (hash) релиза: 28bce5cdd7749c27baf37a2512aec9f2ef1beceb
Подписка на обновления:

Еще никто не оставлял запись к записи скачать торрент Гандбол Чемпионат Мира 2017 . Будь первым!

!Обратная связь