Скачать через торрент Бариста Серии: 1-4 из 4 Фильм бесплатно в хорошем качестве torrent

Скачивайте на UnionPeer.org фильмы через торрент без регистрации. Новинки кино в хорошем качестве через торрент. На UnionPeer.org можно скачать через торрент фильмы 2014 и 2015 годов. Самые новые фильмы.

Скачать торрент Бариста Серии: 1-4 из 4 бесплатно через .torrent фильм мультфильм сериал

Статистика раздачи
Размер:  2.74 GB   |    Зарегистрирован:  4 месяца 14 дней   |    .torrent скачан:  117 раз   |   
Раздают:  1  
   
 
Автор Сообщение

Galfimbul

avatar Galfimbul


Бариста

Год выпуска: 2015
Производство: Паламеда Продакшн
Жанр: Детектив, мелодрама
Продолжительность: 00:45:00
Субтитры: нет
Режиссёр: Александр Касаткин
В ролях: Полина Стрельникова (Сыркина), Анатолий Лобоцкий, Владимир Мишуков, Вероника Пляшкевич, Андрей Сенькин
Описание: Всё, что Лера умела — это варить непревзойденный кофе. И даже в недорогое сетевое кафе люди приходили попробовать удивительный напиток. Жизнь её текла спокойно и размеренно, пока в кафе не появился респектабельный господин, показавшийся смутно знакомым… Он предложил Лере совсем иную жизнь. Вскоре мужчина погиб в двух шагах от кафе, где работала Лера. И с этого момента её жизнь поменялась — кто-то явно пытается её убить…
<a href="tracker.php?f=9&nm=%D0%91%D0%B0%D1%80%D0%B8%D1%81%D1%82%D0%B0" class="postLink">Все раздачи сериала</a> / Семпл
Релиз от:
Качество: HDTVRip
Формат: AVI
Видео кодек: XviD
Аудио кодек: AC3
Видео: 720x400 (16:9), 25.000 fps, XviD build 73, 1984 Kbps, 0.27 Bits/Pixel
Аудио: 48 kHz, AC3 Dolby Digital, 2 ch, 192 Kbps
Реклама: Нет
General
Complete name : Downloads\Barista.2015..HDTVRip.Files-x\01.Barista.2015..HDTVRip.Files-x.avi
Format : AVI
Format/Info : Audio Video Interleave
File size : 1.37 GiB
Duration : 1h 29mn
Overall bit rate : 2 186 Kbps
Writing application : VirtualDubMod 1.5.10.2 (build 2542/release)
Writing library : VirtualDubMod build 2542/release
Video #0
ID : 0
Format : MPEG-4 Visual
Format profile : Advanced Simple@L5
Format settings, BVOP : 1
Format settings, QPel : No
Format settings, GMC : No warppoints
Format settings, Matrix : Custom
Codec ID : XVID
Codec ID/Hint : XviD
Duration : 1h 29mn
Bit rate : 1 984 Kbps
Width : 720 pixels
Height : 400 pixels
Display aspect ratio : 16:9
Frame rate : 25.000 fps
Color space : YUV
Chroma subsampling : 4:2:0
Bit depth : 8 bits
Scan type : Progressive
Compression mode : Lossy
Bits/(Pixel*Frame) : 0.276
Stream size : 1.24 GiB (91%)
Writing library : XviD 73
Audio #1
ID : 1
Format : AC-3
Format/Info : Audio Coding 3
Mode extension : CM (complete main)
Format settings, Endianness : Big
Codec ID : 2000
Duration : 1h 29mn
Bit rate mode : Constant
Bit rate : 192 Kbps
Channel(s) : 2 channels
Channel positions : Front: L R
Sampling rate : 48.0 KHz
Bit depth : 16 bits
Compression mode : Lossy
Stream size : 123 MiB (9%)
Alignment : Split accross interleaves
Interleave, duration : 40 ms (1.00 video frame)
Interleave, preload duration : 500 ms


Трекер:  [ 12-Янв-2017 00:30 ]

  

Скачать .torrent

Размер .torrent файла 14 KB


Размер: 2.74 GB
Хэш (hash) релиза: a3830b93d6d6a8577e452fc985be66f1609a192b
Подписка на обновления:

Еще никто не оставлял запись к записи скачать торрент Бариста Серии: 1-4 из 4 . Будь первым!

!Обратная связь