Скачать через торрент Волейбол Женщины Фильм бесплатно в хорошем качестве torrent

Скачивайте на UnionPeer.org фильмы через торрент без регистрации. Новинки кино в хорошем качестве через торрент. На UnionPeer.org можно скачать через торрент фильмы 2014 и 2015 годов. Самые новые фильмы.

Скачать торрент Волейбол Женщины бесплатно через .torrent фильм мультфильм сериал

Если у вас наблюдаются проблемы со скриншотами, переходом по ссылками, скачиванием торрентов - проблемы в блокировщике рекламы AdBlock. #хорошегоДня!


Статистика раздачи
Размер:  3.6 GB   |    Зарегистрирован:  8 месяцев   |    .torrent скачан:  35 раз   |   
Раздают:  1  
   
Загрузка...
 
Автор Сообщение

Galfimbul

avatar Galfimbul


<span class="post-font-sans1">Волейбол. Женщины. Лига Чемпионов 2016-17
Группа B. 2-й тур
Альба Блаж (Румыния) - Динамо (Краснодар, Россия)
</span>
Дата эфира: 11.01.2017
Вид спорта: Волейбол
Комментарий: Профессиональный
Язык комментариев: Русский
Описание: Волейбол / Женщины / Лига Чемпионов 2016-17 / Группа B / 2-й тур / Альба Блаж (Румыния) - Динамо (Краснодар, Россия).
Автор рипа: music it's my life

Качество: HDTVRip
Формат: MKV
Видео кодек: AVC
Аудио кодек: AC3
Видео: MPEG4 Video (H264) 1280x720 (16:9) 50fps 4000kbps
Аудио: Dolby AC3 48000Hz stereo 192kbps
02:00:06
Альба Блаж (Румыния) - Динамо (Краснодар, Россия)
23:25, 25:16, 19:25, 22:25
GeneralUnique ID : 62756322646614997893656092282205266409 (0x2F366D97DC926FD78CF1B86D5FAC61E9)Complete name : W:\раздачи\Волейбол. Лига Чемпионов. Женщины. Альба Блаж (Румыния) - Динамо (Краснодар, Россия). Рутрекер.mkvFormat : MatroskaFormat version : Version 2File size : 3.60 GiBDuration : 2 h 0 minOverall bit rate : 4 286 kb/sWriting application : Lavf54.63.104Writing library : Lavf54.63.104 / Lavf54.63.104

VideoID : 1Format : AVCFormat/Info : Advanced Video CodecFormat profile : High@L4.1Format settings, CABAC : YesFormat settings, ReFrames : 4 framesCodec ID : V_MPEG4/ISO/AVCDuration : 2 h 0 minBit rate : 4 009 kb/sWidth : 1 280 pixelsHeight : 720 pixelsDisplay aspect ratio : 16:9Frame rate mode : ConstantFrame rate : 50.000 FPSColor space : YUVChroma subsampling : 4:2:0Bit depth : 8 bitsScan type : ProgressiveBits/(Pixel*Frame) : 0.087Stream size : 3.36 GiB (94%)Default : NoForced : NoColor range : LimitedColor primaries : BT.709Transfer characteristics : BT.709Matrix coefficients : BT.709

AudioID : 2Format : AC-3Format/Info : Audio Coding 3Mode extension : CM (complete main)Format settings, Endianness : BigCodec ID : A_AC3Duration : 2 h 0 minBit rate mode : ConstantBit rate : 192 kb/sChannel(s) : 2 channelsChannel positions : Front: L RSampling rate : 48.0 kHzFrame rate : 31.250 FPS (1536 spf)Bit depth : 16 bitsCompression mode : LossyStream size : 165 MiB (4%)Language : RussianDefault : YesForced : No


Трекер:  [ 11-Янв-2017 23:30 ]

  

Скачать .torrent

Размер .torrent файла 18 KB


Размер: 3.6 GB
Хэш (hash) релиза: 7d9acde0b8b2c81fa9167898176d3eea2cbb1390
Подписка на обновления:

Еще никто не оставлял запись к записи скачать торрент Волейбол Женщины . Будь первым!

!Обратная связь