Скачать через торрент Волейбол Женщины Фильм бесплатно в хорошем качестве torrent

Скачивайте на UnionPeer.org фильмы через торрент без регистрации. Новинки кино в хорошем качестве через торрент. На UnionPeer.org можно скачать через торрент фильмы 2014 и 2015 годов. Самые новые фильмы.

Скачать торрент Волейбол Женщины бесплатно через .torrent фильм мультфильм сериал

Статистика раздачи
Размер:  9.36 GB   |    Зарегистрирован:  4 месяца 16 дней   |    .torrent скачан:  28 раз   |   
Раздают:  1  
   
 
Автор Сообщение

Galfimbul

avatar Galfimbul


<span class="post-font-sans1">Волейбол. Женщины. Лига Чемпионов 2016-17
Группа B. 2-й тур
Альба Блаж (Румыния) - Динамо (Краснодар, Россия)
</span>
Дата эфира: 11.01.2017
Вид спорта: Волейбол
Комментарий: Профессиональный
Язык комментариев: Русский
Описание: Волейбол / Женщины / Лига Чемпионов 2016-17 / Группа B / 2-й тур / Альба Блаж (Румыния) - Динамо (Краснодар, Россия).
Автор рипа: music it's my life

Качество: HDTV
Формат: TS
Видео кодек: H.264
Аудио кодек: MP2
Видео: MPEG4 Video (H264) 1920x1080 (16:9) 25fps 10400kbps
Аудио: MPEG Audio 48000Hz stereo 192kbps
02:00:14
Альба Блаж (Румыния) - Динамо (Краснодар, Россия)
23:25, 25:16, 19:25, 22:25
GeneralID : 1 (0x1)Complete name : W:\раздачи\Волейбол. Лига Чемпионов. Женщины. Альба Блаж (Румыния) - Динамо (Краснодар, Россия). Рутрекер.tsFormat : MPEG-TSFile size : 9.36 GiBDuration : 2 h 0 minOverall bit rate mode : VariableOverall bit rate : 11.1 Mb/s

VideoID : 324 (0x144)Menu ID : 12104 (0x2F48)Format : AVCFormat/Info : Advanced Video CodecFormat profile : High@L4Format settings, CABAC : YesFormat settings, ReFrames : 4 framesCodec ID : 27Duration : 2 h 0 minBit rate : 10.4 Mb/sWidth : 1 920 pixelsHeight : 1 080 pixelsDisplay aspect ratio : 16:9Frame rate : 25.000 FPSStandard : ComponentColor space : YUVChroma subsampling : 4:2:0Bit depth : 8 bitsScan type : InterlacedScan type, store method : Separated fieldsScan order : Top Field FirstBits/(Pixel*Frame) : 0.201Stream size : 8.74 GiB (93%)Color range : LimitedColor primaries : BT.709Transfer characteristics : BT.709Matrix coefficients : BT.709

AudioID : 404 (0x194)Menu ID : 12104 (0x2F48)Format : MPEG AudioFormat version : Version 1Format profile : Layer 2Codec ID : 3Duration : 2 h 0 minBit rate mode : ConstantBit rate : 192 kb/sChannel(s) : 2 channelsSampling rate : 48.0 kHzCompression mode : LossyStream size : 165 MiB (2%)Language : Russian


Трекер:  [ 11-Янв-2017 23:30 ]

  

Скачать .torrent

Размер .torrent файла 47 KB


Размер: 9.36 GB
Хэш (hash) релиза: 548299e95aedfc396cf89d0ace16abfeb9ce49f1
Подписка на обновления:

Еще никто не оставлял запись к записи скачать торрент Волейбол Женщины . Будь первым!

!Обратная связь