Скачать через торрент Министр и шут Le ministre et le saltimbanque Фильм бесплатно в хорошем качестве torrent

Скачивайте на UnionPeer.org фильмы через торрент без регистрации. Новинки кино в хорошем качестве через торрент. На UnionPeer.org можно скачать через торрент фильмы 2014 и 2015 годов. Самые новые фильмы.

Скачать торрент Министр и шут Le ministre et le saltimbanque бесплатно через .torrent фильм мультфильм сериал

Статистика раздачи
Размер:  1.15 GB   |    Зарегистрирован:  1 месяц 12 дней   |    .torrent скачан:  15 раз   |   
Раздают:  1  
   
 
Автор Сообщение

Galfimbul

avatar Galfimbul


Министр и шут
Le ministre et le saltimbanque
Дата/Год выпуска: 2014
Страна: Франция
Жанр: документальный, биографический
Продолжительность: 00:52:26
Перевод: Субтитры
Доп. инфо о переводе: русский перевод Е.Шмагринской, Éclair Media
Русские субтитры: естьФормат субтитров: prerendered (IDX+SUB), softsub (SRT)
Доп. информация о субтитрах: русские, немецкие, нидерландские, румынские - (IDX+SUB); английские, французские - (SRT)
Оригинальная аудиодорожка: французский

Режиссер: Тьерри Цирнхельд / Thierry Zirnheld, Дилип Варма / Dilip K. Varma

Телеканал: TV5MONDE Europe

Описание: Филипп Леотар скончался в возрасте 60-ти лет, не дожив нескольких дней до своего дня рождения. Актер театра и кино, певец, записавший несколько дисков, Филипп Леотар был известен и популярен во Франции, хотя за свою долгую карьеру в кино он исполнял, в основном, второплановые роли. Известие о смерти Филиппа Леотара не было неожиданным. В последние годы актер меньше снимался, два года назад уже пережил одну срочную госпитализацию. Создавший на киноэкране образы ярких, маргинальных, изрядно потрепанных жизнью персонажей, Леотар в чем-то походил на своих героев, про которых нельзя было точно сказать - положительные они или отрицательные. Это обстоятельство подчеркивал и сам актер, рассказавший о своих долгих и запутанных отношениях с алкоголем и кокаином в автобиографии.

Доп. информация: Hot Bird (13.0°E) DVB-S

качество: DVB
формат: MKV
Видео: MPEG Video 2, 720x576 (16:9), 25 fps, ~2885 kbps avg, 0.278 bit/pixel
Аудио: MPEG Audio 2, 2 ch, 48 kHz, ~192.00 kbps avg - французский
GeneralUnique ID : 183444647114636425782985783517051847214 (0x8A02276617C2F5A1AA79E975BE67822E)Complete name : [apreder]Le_ministre_et_le_saltimbanque(2014)DVB.mkvFormat : MatroskaFormat version : Version 2File size : 1.15 GiBDuration : 52 min 26 sOverall bit rate mode : VariableOverall bit rate : 3 140 kb/sMovie name : Le ministre et le saltimbanqueReleased date : 2015-12-08Encoded date : UTC 2016-12-04 15:11:25Writing application : mkvmerge v9.6.0 ('Slave To Your Mind') 64bitWriting library : libebml v1.3.4 + libmatroska v1.4.5Cover : YesAttachments : cover.jpg / small_cover.jpgACTOR : Philippe LeotardDIRECTOR : Dilip Varma, Thierry ZirnheldGENRE : DocumentaryIMDB : tt5293200KEYWORDS : rutracker.orgLAW_RATING : 12+

VideoID : 1Format : MPEG VideoFormat version : Version 2Format profile : Main@MainFormat settings, BVOP : YesFormat settings, Matrix : CustomFormat settings, GOP : VariableFormat settings, picture structure : FrameCodec ID : V_MPEG2Codec ID/Info : MPEG 1 or 2 VideoDuration : 52 min 26 sBit rate mode : VariableBit rate : 2 885 kb/sWidth : 720 pixelsHeight : 576 pixelsDisplay aspect ratio : 16:9Frame rate mode : ConstantFrame rate : 25.000 FPSStandard : PALColor space : YUVChroma subsampling : 4:2:0Bit depth : 8 bitsScan type : InterlacedScan order : Top Field FirstCompression mode : LossyBits/(Pixel*Frame) : 0.278Time code of first frame : 00:00:00:00Time code source : Group of pictures headerGOP, Open/Closed : OpenGOP, Open/Closed of first frame : ClosedStream size : 1.06 GiB (92%)Default : YesForced : No

AudioID : 2Format : MPEG AudioFormat version : Version 1Format profile : Layer 2Mode : Joint stereoMode extension : Intensity Stereo + MS StereoCodec ID : A_MPEG/L2Codec ID/Hint : MP2Duration : 52 min 26 sBit rate mode : ConstantBit rate : 192 kb/sChannel(s) : 2 channelsSampling rate : 48.0 kHzCompression mode : LossyStream size : 72.0 MiB (6%)Language : FrenchDefault : YesForced : No

Text #1ID : 3Format : VobSubCodec ID : S_VOBSUBCodec ID/Info : Picture based subtitle format used on DVDsLanguage : RussianDefault : NoForced : No

Text #2ID : 4Format : UTF-8Codec ID : S_TEXT/UTF8Codec ID/Info : UTF-8 Plain TextLanguage : EnglishDefault : NoForced : No

Text #3ID : 5Format : UTF-8Codec ID : S_TEXT/UTF8Codec ID/Info : UTF-8 Plain TextLanguage : FrenchDefault : NoForced : No

Text #4ID : 6Format : VobSubCodec ID : S_VOBSUBCodec ID/Info : Picture based subtitle format used on DVDsLanguage : GermanDefault : NoForced : No

Text #5ID : 7Format : VobSubCodec ID : S_VOBSUBCodec ID/Info : Picture based subtitle format used on DVDsLanguage : DutchDefault : NoForced : No

Text #6ID : 8Format : VobSubCodec ID : S_VOBSUBCodec ID/Info : Picture based subtitle format used on DVDsLanguage : RomanianDefault : NoForced : No

[3'382]

Трекер:  [ 11-Янв-2017 22:00 ]

  

Скачать .torrent

Размер .torrent файла 12 KB


Размер: 1.15 GB
Хэш (hash) релиза: 339cfa68242ab0fce3d7e407e3753d8fbda5d374
Подписка на обновления:

Еще никто не оставлял запись к записи скачать торрент Министр и шут Le ministre et le saltimbanque . Будь первым!

!Обратная связь