Скачать через торрент музыку бесплатно без регистрации torrent

Если у вас наблюдаются проблемы со скриншотами, переходом по ссылками, скачиванием торрентов - проблемы в блокировщике рекламы AdBlock. #хорошегоДня!


Статистика раздачи
Размер:  886 MB   |    Зарегистрирован:  9 месяцев   |    .torrent скачан:  30 раз   |   
Раздают:  1  
   
Загрузка...
 
Автор Сообщение

Galfimbul

avatar Galfimbul


<span class="post-font-serif2">GOA 2010 <span class="post-font-serif2">Vol. 2</span>
<span class="post-font-cursive1">Compiled by <span class="post-font-serif1">DJ Bim</span></span></span>
Жанр: Psy-Prog
Носитель: CD
Страна-производитель диска (релиза): UK
Год издания: 2010
Издатель (лейбл): Yellow Sunshine Explosion
Номер по каталогу: YSE2CD226
Аудиокодек: FLAC (*.flac)
Тип рипа: tracks+.cue
Битрейт аудио: lossless
Продолжительность: 02:21:06
Источник (релизер): What
Наличие сканов в содержимом раздачи: нет
CD1 (01:09:51):
01. <span class="post-font-serif1">Invisible Reality - <span class="post-font-cursive1">High To The Sky (</span><span class="post-font-serif1">Solaris Vibe</span> <span class="post-font-cursive1">Remix)</span></span> (7:43)
02. <span class="post-font-serif1">Sideform - <span class="post-font-cursive1">Mafia Swing</span></span> (7:35)
03. <span class="post-font-serif1">Invisible Reality - <span class="post-font-cursive1">Alice Dream</span></span> (9:23)
04. <span class="post-font-serif1">Mute - <span class="post-font-cursive1">Mechanizm (</span><span class="post-font-serif1">Flegma</span></span> & <span class="post-font-serif1">Nerso <span class="post-font-cursive1">Remix)</span></span> (7:21)
05. <span class="post-font-serif1">DJ Sangeet</span> & <span class="post-font-serif1">Marco Menichelli - <span class="post-font-cursive1">Walkyrie</span></span> (7:14)
06. <span class="post-font-serif1">Reverse - <span class="post-font-cursive1">Physical Expansion</span></span> (8:09)
07. <span class="post-font-serif1">Inner State - <span class="post-font-cursive1">Rising Tales</span></span> (7:17)
08. <span class="post-font-serif1">E-Clip - <span class="post-font-cursive1">Krik</span></span> (7:13)
09. <span class="post-font-serif1">Zyce</span> & <span class="post-font-serif1">Egorythmia - <span class="post-font-cursive1">Lithium</span></span> (7:56)

CD2 (01:11:15):
01. <span class="post-font-serif1">Krama - <span class="post-font-cursive1">After Rain</span></span> (8:36)
02. <span class="post-font-serif1">DJ Bim</span> & <span class="post-font-serif1">M-Sphere - <span class="post-font-cursive1">Industrial Flavor</span></span> (7:56)
03. <span class="post-font-serif1">S-Range</span> - <span class="post-font-cursive1">Test Tones (<span class="post-font-serif1">Alternative Motion</span> <span class="post-font-cursive1">Remix)</span></span> (7:50)
04. <span class="post-font-serif1">Xshade</span> & <span class="post-font-serif1">Loopstep - <span class="post-font-cursive1">From Another Planet</span></span> (7:34)
05. <span class="post-font-serif1">Multiphase - <span class="post-font-cursive1">Kaleidoscope</span></span> (7:55)
06. <span class="post-font-serif1">Egorythmia - <span class="post-font-cursive1">Black Hole</span></span> (7:22)
07. <span class="post-font-serif1">Liquid Space - <span class="post-font-cursive1">An Expression</span></span> (8:17)
08. <span class="post-font-serif1">Symphonix - <span class="post-font-cursive1">The Good Old Times (</span><span class="post-font-serif1">Suntree</span> <span class="post-font-cursive1">Remix)</span></span> (8:53)
09. <span class="post-font-serif1">Neelix - <span class="post-font-cursive1">Smoke In Mirrors (</span><span class="post-font-serif1">DJ Bim</span></span> & <span class="post-font-serif1">M-Sphere <span class="post-font-cursive1">Remix)</span></span> (6:52)
Exact Audio Copy V0.99 prebeta 5 from 4. May 2009

EAC extraction logfile from 8. October 2010, 15:16

Various / Goa 2010 Vol 2

Used drive : PLEXTOR DVDR PX-860SA Adapter: 9 ID: 0

Read mode : SecureUtilize accurate stream : YesDefeat audio cache : YesMake use of C2 pointers : No

Read offset correction : 96Overread into Lead-In and Lead-Out : NoFill up missing offset samples with silence : YesDelete leading and trailing silent blocks : NoNull samples used in CRC calculations : YesUsed interface : Native Win32 interface for Win NT & 2000Gap handling : Appended to previous track

Used output format : User Defined EncoderSelected bitrate : 320 kBit/sQuality : HighAdd ID3 tag : NoCommand line compressor : D:\Exact Audio Copy\Flac\flac.exeAdditional command line options : -V -8 -T "artist=%a" -T "title=%t" -T "album=%g" -T "date=%y" -T "tracknumber=%n" -T "genre=%m" %s

TOC of the extracted CD

Track | Start | Length | Start sector | End sector --------------------------------------------------------- 1 | 0:00.00 | 7:43.04 | 0 | 34728 2 | 7:43.04 | 7:35.56 | 34729 | 68909 3 | 15:18.60 | 9:23.53 | 68910 | 111187 4 | 24:42.38 | 7:21.23 | 111188 | 144285 5 | 32:03.61 | 7:14.54 | 144286 | 176889 6 | 39:18.40 | 8:09.41 | 176890 | 213605 7 | 47:28.06 | 7:17.22 | 213606 | 246402 8 | 54:45.28 | 7:13.52 | 246403 | 278929 9 | 61:59.05 | 7:56.61 | 278930 | 314690

Track 1

Filename F:\-= MUSICLOAD =-\-= RIPPING =-\VA - Goa 2010 Vol 2 - 2010 - FLAC\Various - Goa 2010 Vol 2 - 01 - Track01 - Track01.wav

Pre-gap length 0:00:02.00

Peak level 100.0 % Track quality 100.0 % Test CRC 113BF9EA Copy CRC 113BF9EA Track not present in AccurateRip database Copy OK

Track 2

Filename F:\-= MUSICLOAD =-\-= RIPPING =-\VA - Goa 2010 Vol 2 - 2010 - FLAC\Various - Goa 2010 Vol 2 - 02 - Track02 - Track02.wav

Peak level 85.1 % Track quality 100.0 % Test CRC 84D7A23A Copy CRC 84D7A23A Track not present in AccurateRip database Copy OK

Track 3

Filename F:\-= MUSICLOAD =-\-= RIPPING =-\VA - Goa 2010 Vol 2 - 2010 - FLAC\Various - Goa 2010 Vol 2 - 03 - Track03 - Track03.wav

Peak level 96.5 % Track quality 100.0 % Test CRC 52850AAC Copy CRC 52850AAC Track not present in AccurateRip database Copy OK

Track 4

Filename F:\-= MUSICLOAD =-\-= RIPPING =-\VA - Goa 2010 Vol 2 - 2010 - FLAC\Various - Goa 2010 Vol 2 - 04 - Track04 - Track04.wav

Peak level 96.6 % Track quality 99.9 % Test CRC 927A5B76 Copy CRC 927A5B76 Track not present in AccurateRip database Copy OK

Track 5

Filename F:\-= MUSICLOAD =-\-= RIPPING =-\VA - Goa 2010 Vol 2 - 2010 - FLAC\Various - Goa 2010 Vol 2 - 05 - Track05 - Track05.wav

Peak level 93.2 % Track quality 100.0 % Test CRC 3BFDC42F Copy CRC 3BFDC42F Track not present in AccurateRip database Copy OK

Track 6

Filename F:\-= MUSICLOAD =-\-= RIPPING =-\VA - Goa 2010 Vol 2 - 2010 - FLAC\Various - Goa 2010 Vol 2 - 06 - Track06 - Track06.wav

Peak level 96.5 % Track quality 100.0 % Test CRC BA324380 Copy CRC BA324380 Track not present in AccurateRip database Copy OK

Track 7

Filename F:\-= MUSICLOAD =-\-= RIPPING =-\VA - Goa 2010 Vol 2 - 2010 - FLAC\Various - Goa 2010 Vol 2 - 07 - Track07 - Track07.wav

Peak level 96.5 % Track quality 100.0 % Test CRC 0340CAE0 Copy CRC 0340CAE0 Track not present in AccurateRip database Copy OK

Track 8

Filename F:\-= MUSICLOAD =-\-= RIPPING =-\VA - Goa 2010 Vol 2 - 2010 - FLAC\Various - Goa 2010 Vol 2 - 08 - Track08 - Track08.wav

Peak level 96.5 % Track quality 100.0 % Test CRC D2FEC90D Copy CRC D2FEC90D Track not present in AccurateRip database Copy OK

Track 9

Filename F:\-= MUSICLOAD =-\-= RIPPING =-\VA - Goa 2010 Vol 2 - 2010 - FLAC\Various - Goa 2010 Vol 2 - 09 - Track09 - Track09.wav

Peak level 96.5 % Track quality 100.0 % Test CRC CBEC5AD2 Copy CRC CBEC5AD2 Track not present in AccurateRip database Copy OK

None of the tracks are present in the AccurateRip database

No errors occurred

End of status report
Exact Audio Copy V0.99 prebeta 5 from 4. May 2009

EAC extraction logfile from 8. October 2010, 15:43

Various / Goa 2010 Vol 2

Used drive : PLEXTOR DVDR PX-860SA Adapter: 9 ID: 0

Read mode : SecureUtilize accurate stream : YesDefeat audio cache : YesMake use of C2 pointers : No

Read offset correction : 96Overread into Lead-In and Lead-Out : NoFill up missing offset samples with silence : YesDelete leading and trailing silent blocks : NoNull samples used in CRC calculations : YesUsed interface : Native Win32 interface for Win NT & 2000Gap handling : Appended to previous track

Used output format : User Defined EncoderSelected bitrate : 320 kBit/sQuality : HighAdd ID3 tag : NoCommand line compressor : D:\Exact Audio Copy\Flac\flac.exeAdditional command line options : -V -8 -T "artist=%a" -T "title=%t" -T "album=%g" -T "date=%y" -T "tracknumber=%n" -T "genre=%m" %s

TOC of the extracted CD

Track | Start | Length | Start sector | End sector --------------------------------------------------------- 1 | 0:00.00 | 8:36.62 | 0 | 38761 2 | 8:36.62 | 7:56.42 | 38762 | 74503 3 | 16:33.29 | 7:50.46 | 74504 | 109799 4 | 24:24.00 | 7:34.54 | 109800 | 143903 5 | 31:58.54 | 7:55.51 | 143904 | 179579 6 | 39:54.30 | 7:22.57 | 179580 | 212786 7 | 47:17.12 | 8:17.23 | 212787 | 250084 8 | 55:34.35 | 8:53.68 | 250085 | 290127 9 | 64:28.28 | 6:52.74 | 290128 | 321101

Track 1

Filename F:\-= MUSICLOAD =-\-= RIPPING =-\VA - Goa 2010 Vol 2 - 2010 - FLAC\Various - Goa 2010 Vol 2 - 01 - Track01 - Track01.wav

Pre-gap length 0:00:02.00

Peak level 96.5 % Track quality 100.0 % Test CRC F45C47C9 Copy CRC F45C47C9 Track not present in AccurateRip database Copy OK

Track 2

Filename F:\-= MUSICLOAD =-\-= RIPPING =-\VA - Goa 2010 Vol 2 - 2010 - FLAC\Various - Goa 2010 Vol 2 - 02 - Track02 - Track02.wav

Peak level 96.5 % Track quality 100.0 % Test CRC B91E52F0 Copy CRC B91E52F0 Track not present in AccurateRip database Copy OK

Track 3

Filename F:\-= MUSICLOAD =-\-= RIPPING =-\VA - Goa 2010 Vol 2 - 2010 - FLAC\Various - Goa 2010 Vol 2 - 03 - Track03 - Track03.wav

Peak level 96.5 % Track quality 100.0 % Test CRC B318FB35 Copy CRC B318FB35 Track not present in AccurateRip database Copy OK

Track 4

Filename F:\-= MUSICLOAD =-\-= RIPPING =-\VA - Goa 2010 Vol 2 - 2010 - FLAC\Various - Goa 2010 Vol 2 - 04 - Track04 - Track04.wav

Peak level 92.1 % Track quality 100.0 % Test CRC 92F42E76 Copy CRC 92F42E76 Track not present in AccurateRip database Copy OK

Track 5

Filename F:\-= MUSICLOAD =-\-= RIPPING =-\VA - Goa 2010 Vol 2 - 2010 - FLAC\Various - Goa 2010 Vol 2 - 05 - Track05 - Track05.wav

Peak level 96.5 % Track quality 100.0 % Test CRC 851B4E70 Copy CRC 851B4E70 Track not present in AccurateRip database Copy OK

Track 6

Filename F:\-= MUSICLOAD =-\-= RIPPING =-\VA - Goa 2010 Vol 2 - 2010 - FLAC\Various - Goa 2010 Vol 2 - 06 - Track06 - Track06.wav

Peak level 96.5 % Track quality 100.0 % Test CRC B739AB60 Copy CRC B739AB60 Track not present in AccurateRip database Copy OK

Track 7

Filename F:\-= MUSICLOAD =-\-= RIPPING =-\VA - Goa 2010 Vol 2 - 2010 - FLAC\Various - Goa 2010 Vol 2 - 07 - Track07 - Track07.wav

Peak level 90.0 % Track quality 100.0 % Test CRC 48AEE60A Copy CRC 48AEE60A Track not present in AccurateRip database Copy OK

Track 8

Filename F:\-= MUSICLOAD =-\-= RIPPING =-\VA - Goa 2010 Vol 2 - 2010 - FLAC\Various - Goa 2010 Vol 2 - 08 - Track08 - Track08.wav

Peak level 96.5 % Track quality 100.0 % Test CRC 1708493B Copy CRC 1708493B Track not present in AccurateRip database Copy OK

Track 9

Filename F:\-= MUSICLOAD =-\-= RIPPING =-\VA - Goa 2010 Vol 2 - 2010 - FLAC\Various - Goa 2010 Vol 2 - 09 - Track09 - Track09.wav

Peak level 93.2 % Track quality 100.0 % Test CRC 10838040 Copy CRC 10838040 Track not present in AccurateRip database Copy OK

None of the tracks are present in the AccurateRip database

No errors occurred

End of status report
REM GENRE Psy-ProgREM DATE 2010REM DISCID 79106309REM COMMENT "ExactAudioCopy v0.99pb5"PERFORMER "VA"TITLE "Goa 2010 Vol 2 - CD1"FILE "01. Invisible Reality - High To The Sky (Solaris Vibe Remix).wav" WAVE TRACK 01 AUDIO TITLE "High To The Sky (Solaris Vibe Remix)" PERFORMER "Invisible Reality" INDEX 01 00:00:00FILE "02. Sideform - Mafia Swing.wav" WAVE TRACK 02 AUDIO TITLE "Mafia Swing" PERFORMER "Sideform" INDEX 01 00:00:00FILE "03. Invisible Reality - Alice Dream.wav" WAVE TRACK 03 AUDIO TITLE "Alice Dream" PERFORMER "Invisible Reality" INDEX 01 00:00:00FILE "04. Mute - Mechanizm (Flegma & Nerso Remix).wav" WAVE TRACK 04 AUDIO TITLE "Mechanizm (Flegma & Nerso Remix)" PERFORMER "Mute" INDEX 01 00:00:00FILE "05. DJ Sangeet & Marco Menichelli - Walkyrie.wav" WAVE TRACK 05 AUDIO TITLE "Walkyrie" PERFORMER "DJ Sangeet & Marco Menichelli" INDEX 01 00:00:00FILE "06. Reverse - Physical Expansion.wav" WAVE TRACK 06 AUDIO TITLE "Physical Expansion" PERFORMER "Reverse" INDEX 01 00:00:00FILE "07. Inner State - Rising Tales.wav" WAVE TRACK 07 AUDIO TITLE "Rising Tales" PERFORMER "Inner State" INDEX 01 00:00:00FILE "08. E-Clip - Krik.wav" WAVE TRACK 08 AUDIO TITLE "Krik" PERFORMER "E-Clip" INDEX 01 00:00:00FILE "09. Zyce & Egorythmia - Lithium.wav" WAVE TRACK 09 AUDIO TITLE "Lithium" PERFORMER "Zyce & Egorythmia" INDEX 01 00:00:00
REM GENRE Psy-ProgREM DATE 2010REM DISCID 8F10B909REM COMMENT "ExactAudioCopy v0.99pb5"PERFORMER "VA"TITLE "Goa 2010 Vol 2 - CD2"FILE "01. Krama - After Rain.wav" WAVE TRACK 01 AUDIO TITLE "After Rain" PERFORMER "Krama" INDEX 01 00:00:00FILE "02. DJ Bim & M-Sphere - Industrial Flavor.wav" WAVE TRACK 02 AUDIO TITLE "Industrial Flavor" PERFORMER "DJ Bim & M-Sphere" INDEX 01 00:00:00FILE "03. S-Range - Test Tones (Alternative Motion Remix).wav" WAVE TRACK 03 AUDIO TITLE "Test Tones (Alternative Motion Remix)" PERFORMER "S-Range" INDEX 01 00:00:00FILE "04. Xshade & Loopstep - From Another Planet.wav" WAVE TRACK 04 AUDIO TITLE "From Another Planet" PERFORMER "Xshade & Loopstep" INDEX 01 00:00:00FILE "05. Multiphase - Kaleidoscope.wav" WAVE TRACK 05 AUDIO TITLE "Kaleidoscope" PERFORMER "Multiphase" INDEX 01 00:00:00FILE "06. Egorythmia - Black Hole.wav" WAVE TRACK 06 AUDIO TITLE "Black Hole" PERFORMER "Egorythmia" INDEX 01 00:00:00FILE "07. Liquid Space - An Expression.wav" WAVE TRACK 07 AUDIO TITLE "An Expression" PERFORMER "Liquid Space" INDEX 01 00:00:00FILE "08. Symphonix - The Good Old Times (Suntree Remix).wav" WAVE TRACK 08 AUDIO TITLE "The Good Old Times (Suntree Remix)" PERFORMER "Symphonix" INDEX 01 00:00:00FILE "09. Neelix - Smoke In Mirrors (DJ Bim & M-Sphere Remix).wav" WAVE TRACK 09 AUDIO TITLE "Smoke In Mirrors (DJ Bim & M-Sphere Remix)" PERFORMER "Neelix" INDEX 01 00:00:00
-----------------------

DON'T MODIFY THIS FILE

-----------------------

PERFORMER: auCDtect Task Manager, ver. 1.6.0 RC1 build 1.6.0.1Copyright (c) 2008-2010 y-soft. All rights reservedhttp://y-soft.org

ANALYZER: auCDtect: CD records authenticity detector, version 0.8.2Copyright (c) 2004 Oleg Berngardt. All rights reserved.Copyright (c) 2004 Alexander Djourik. All rights reserved.

FILE: 09. Zyce & Egorythmia - Lithium.flac Size: 50606196 Hash: 989DC0C793D58AA0DCD34D436C512825 Accuracy: -m0 Conclusion: CDDA 100% Signature: C928C539F319B6FE8054615F7F476AA18D58C656FILE: 08. E-Clip - Krik.flac Size: 45318647 Hash: 3AA9C96FE10792E3FDA91B648ECA9BC2 Accuracy: -m0 Conclusion: CDDA 100% Signature: 753B9ED8C86B09698BDE26415C19999744E331C4FILE: 07. Inner State - Rising Tales.flac Size: 44007381 Hash: 8C5905160AADB41DE0F59777B06A4D5F Accuracy: -m0 Conclusion: CDDA 100% Signature: 24E17BE5F4475AF1D47C5FD00D1505933853CBCDFILE: 06. Reverse - Physical Expansion.flac Size: 57460590 Hash: E140AE8D54C68DF48C19665DDC872C14 Accuracy: -m0 Conclusion: CDDA 100% Signature: D29222595DC3FE39B9A049B106FBE0DBAB42E13AFILE: 05. DJ Sangeet & Marco Menichelli - Walkyrie.flac Size: 47134029 Hash: 5411FA0246E60876E2C24E64F96FC2B4 Accuracy: -m0 Conclusion: CDDA 99% Signature: 3C15B79EA9E5CF901803800A614EBB4917608ED6FILE: 04. Mute - Mechanizm (Flegma & Nerso Remix).flac Size: 48187940 Hash: 6D9B8A01373C29DD7136857A58A349B0 Accuracy: -m0 Conclusion: CDDA 100% Signature: 260686D1F7751647B56A68DFEEC8B2963E02659CFILE: 03. Invisible Reality - Alice Dream.flac Size: 59947624 Hash: FF1C779AD3DA3EEDCBD3C88E40BDF0BB Accuracy: -m0 Conclusion: CDDA 100% Signature: 3457284E10810BDF7BF7DBD3207F2BEAD436C3F3FILE: 02. Sideform - Mafia Swing.flac Size: 53184648 Hash: CD5DE3DC96B3105EA472C7E9AB9B9FF8 Accuracy: -m0 Conclusion: CDDA 100% Signature: 51C1BF1FD7CE4EB43D835BAAB8959DBC09D6F13AFILE: 01. Invisible Reality - High To The Sky (Solaris Vibe Remix).flac Size: 50162782 Hash: 0A25A672AD54B67AB71D2E8AFC34063F Accuracy: -m0 Conclusion: CDDA 99% Signature: 31B6709DE72FF92D1356FD6D49B05B586F4392EE
-----------------------

DON'T MODIFY THIS FILE

-----------------------

PERFORMER: auCDtect Task Manager, ver. 1.6.0 RC1 build 1.6.0.1Copyright (c) 2008-2010 y-soft. All rights reservedhttp://y-soft.org

ANALYZER: auCDtect: CD records authenticity detector, version 0.8.2Copyright (c) 2004 Oleg Berngardt. All rights reserved.Copyright (c) 2004 Alexander Djourik. All rights reserved.

FILE: 09. Neelix - Smoke In Mirrors (DJ Bim & M-Sphere Remix).flac Size: 47900658 Hash: 9EB6F39D68263AEB2DA802780347356E Accuracy: -m0 Conclusion: CDDA 100% Signature: 2B2DFCD08DA4A47C92BB98AE02EA34C3D3895CA9FILE: 08. Symphonix - The Good Old Times (Suntree Remix).flac Size: 60292471 Hash: 15A4EAEDDDB1DC09FB882A85A5A6AC6E Accuracy: -m0 Conclusion: CDDA 100% Signature: 791E007299D2DA557809CE39F39CF0293AAB09D0FILE: 07. Liquid Space - An Expression.flac Size: 56428638 Hash: 3D9E82CB847A0D4EBCF533D58C3E32D8 Accuracy: -m0 Conclusion: CDDA 100% Signature: AA1BDE818351E7828BF91E959DEAB1794C926FCAFILE: 06. Egorythmia - Black Hole.flac Size: 45643305 Hash: 74A5FC0300F3CBC0613DD841585B97AC Accuracy: -m0 Conclusion: CDDA 100% Signature: 0236CD24A2699E79F0A8C3C47CC253784020F630FILE: 05. Multiphase - Kaleidoscope.flac Size: 48889994 Hash: 5EEE69611F07D0692A7FC50A499C3F84 Accuracy: -m0 Conclusion: CDDA 100% Signature: 5FBF9B628EDBBEFEA68CF79439CE001527274331FILE: 04. Xshade & Loopstep - From Another Planet.flac Size: 44778199 Hash: 08390D74B513021BBB4626C269DE078A Accuracy: -m0 Conclusion: CDDA 100% Signature: 3D9465FEAB9A8943208E7E0AA39EFF93FE6E26C8FILE: 03. S-Range - Test Tones (Alternative Motion Remix).flac Size: 55482692 Hash: 783F5F64CDF537DAE8DED15375071A3E Accuracy: -m0 Conclusion: CDDA 99% Signature: BA7B63A755AB418D477CC2003100865CDAFA982CFILE: 02. DJ Bim & M-Sphere - Industrial Flavor.flac Size: 53219083 Hash: 78241670FD78E2E62F1862D1A472B1F5 Accuracy: -m0 Conclusion: CDDA 100% Signature: A3A14ED3178F19E1AD0CF309851E10943EAF1C33FILE: 01. Krama - After Rain.flac Size: 60028811 Hash: 77D1CCDBAC6EB889A3F470128AE51125 Accuracy: -m0 Conclusion: CDDA 100% Signature: 7D45613BE2A416BEF7FDB38F165D3C0D909D7DB2
Из этого релиза на трекере в качестве я не нашёл:
CD1:
01. Invisible Reality - High To The Sky (Solaris Vibe Remix)
02. Sideform - Mafia Swing (7:35)
04. Mute - Mechanizm (Flegma & Nerso Remix)
CD2:
08. Symphonix - The Good Old Times (Suntree Remix)
СЛУШАТЬ

Трекер:  [ 11-Янв-2017 22:00 ]

  

Скачать .torrent

Размер .torrent файла 19 KB


Размер: 886 MB
Хэш (hash) релиза: d1e44b4dd04332153049deb3a391f7825503e88b

Еще никто не оставлял запись к записи скачать торрент . Будь первым!

!Обратная связь