Скачать через торрент Пластмассовая королева Серии: 1-4 из 4 Фильм бесплатно в хорошем качестве torrent

Скачивайте на UnionPeer.org фильмы через торрент без регистрации. Новинки кино в хорошем качестве через торрент. На UnionPeer.org можно скачать через торрент фильмы 2014 и 2015 годов. Самые новые фильмы.

Скачать торрент Пластмассовая королева Серии: 1-4 из 4 бесплатно через .torrent фильм мультфильм сериал

Статистика раздачи
Размер:  2.73 GB   |    Зарегистрирован:  1 месяц 14 дней   |    .torrent скачан:  107 раз   |   
Раздают:  2  
   
 
Автор Сообщение

Galfimbul

avatar Galfimbul


Пластмассовая королева

Год выпуска: 2016
Производство: Россия, "Мега Продакшн"
Жанр: Мелодрама
Продолжительность: 00:45:00
Субтитры: нет
Режиссёр: Сергей Гиргель
В ролях: Ольга Дятловская, Дарья Пармененкова, Елизавета Фалей, Алиса Признякова, Ефим Петрунин, Иван Николаев, Марина Москвина, Сергей Власов, Наталья Капитонова, Руслан Чернецкий, Андрей Карако, Анатолий Терпицкий
Описание: Маше Громовой 17 лет. Она – «пластмассовая принцесса» в небольшом провинциальном городке. Так все ее здесь зовут. Ведь отец Маши – владелец крупного завода по производству пластика. При этом девушке лютой завистью завидуют две подружки – Света и Анжела. Маша, несмотря на свой «статус», влюблена в простого парня Лешу, что совсем не по душе Громову. Родители героини обманом разлучают ее с любимым и отправляют учиться в столицу.Проходит время. Повзрослевшая Маша возвращается в родной городок и обнаруживает там большие перемены. Отец стал очень прохладно общаться с матерью, грубит ей. Да к тому же выгнал с завода пожилого и мудрого управляющего, а вместо него взял молодого, хлыщеватого Глеба. Этот Глеб, узнав, кто такая Маша, начинает за ней ухаживать и явно набивается в кавалеры. Анжела работает на том же заводе – секретаршей, строит всем глазки. А Леша живет с мамой и… со Светой. Со стороны они выглядят, как счастливая семья.
<a href="tracker.php?f=9&nm=%D0%9F%D0%BB%D0%B0%D1%81%D1%82%D0%BC%D0%B0%D1%81%D1%81%D0%BE%D0%B2%D0%B0%D1%8F%20%D0%BA%D0%BE%D1%80%D0%BE%D0%BB%D0%B5%D0%B2%D0%B0" class="postLink">Все раздачи сериала</a> / Сэмпл
Релиз от:
Качество: HDTVRip
Формат: AVI
Видео кодек: XviD
Аудио кодек: AC3
Видео: 720x400 (16:9), 25.000 fps, XviD build 73, 1908 Kbps, 0.26 Bits/Pixel
Аудио: 48 kHz, AC3 Dolby Digital, 2 ch, 192 Kbps
Реклама: Нет
General
Complete name : Downloads\Пластмассовая королева (2016).HDTVRip.RG.Russkie.serialy.&.Files-x\
Format : AVI
Format/Info : Audio Video Interleave
File size : 1.37 GiB
Duration : 1h 32mn
Overall bit rate : 2 110 Kbps
Writing application : VirtualDubMod 1.5.10.3 | www.virtualdub-fr.org || (build 2550/release)
Writing library : VirtualDubMod build 2550/release
Video #0
ID : 0
Format : MPEG-4 Visual
Format profile : Advanced Simple@L5
Format settings, BVOP : 1
Format settings, QPel : No
Format settings, GMC : No warppoints
Format settings, Matrix : Custom
Codec ID : XVID
Codec ID/Hint : XviD
Duration : 1h 32mn
Bit rate : 1 908 Kbps
Width : 720 pixels
Height : 400 pixels
Display aspect ratio : 16:9
Frame rate : 25.000 fps
Color space : YUV
Chroma subsampling : 4:2:0
Bit depth : 8 bits
Scan type : Progressive
Compression mode : Lossy
Bits/(Pixel*Frame) : 0.265
Stream size : 1.24 GiB (90%)
Writing library : XviD 73
Audio #1
ID : 1
Format : AC-3
Format/Info : Audio Coding 3
Mode extension : CM (complete main)
Format settings, Endianness : Big
Codec ID : 2000
Duration : 1h 32mn
Bit rate mode : Constant
Bit rate : 192 Kbps
Channel(s) : 2 channels
Channel positions : Front: L R
Sampling rate : 48.0 KHz
Bit depth : 16 bits
Compression mode : Lossy
Stream size : 127 MiB (9%)
Alignment : Split accross interleaves
Interleave, duration : 40 ms (1.00 video frame)
Interleave, preload duration : 500 ms


Трекер:  [ 11-Янв-2017 23:00 ]

  

Скачать .torrent

Размер .torrent файла 14 KB


Размер: 2.73 GB
Хэш (hash) релиза: 3194f629b78f5c019d31f40ed32b0e4515af87a9
Подписка на обновления:

Еще никто не оставлял запись к записи скачать торрент Пластмассовая королева Серии: 1-4 из 4 . Будь первым!

!Обратная связь