Скачать через торрент Гражданский брак Серии: 1-6 из 16 Фильм бесплатно в хорошем качестве torrent

Скачивайте на UnionPeer.org фильмы через торрент без регистрации. Новинки кино в хорошем качестве через торрент. На UnionPeer.org можно скачать через торрент фильмы 2014 и 2015 годов. Самые новые фильмы.

Скачать торрент Гражданский брак Серии: 1-6 из 16 бесплатно через .torrent фильм мультфильм сериал

Если у вас наблюдаются проблемы со скриншотами, переходом по ссылками, скачиванием торрентов - проблемы в блокировщике рекламы AdBlock. #хорошегоДня!


Статистика раздачи
Размер:  3.34 GB   |    Зарегистрирован:  9 месяцев   |    .torrent скачан:  126 раз   |   
Раздают:  1   Качают:  1  
   
Загрузка...
 
Автор Сообщение

Galfimbul

avatar Galfimbul


Гражданский брак

Год выпуска: 2017
Производство: Россия, Good Story Media
Жанр: Комедия
Продолжительность: 00:21:00
Субтитры: нет
Режиссёр: Дина Штурманова
В ролях: Агата Муцениеце, Денис Кукояка, Дмитрий Астрахан, Анна Легчилова, Ирина Чеснокова, Дмитрий Аверин, Михаил Грушевский (II), Стефания-Марьяна Гурская, Александр Шулико, Степан Девонин, Наталья Индейкина, Максим Литовченко, Азамат Нигманов, Толепберген Байсакалов
Описание: История о паре, которой уже поздно встречаться, но рано жениться. Тёма и Ника вместе уже больше года и, им хорошо и весело вместе. Но они легкомысленные и не слишком серьезно ко всему относятся. Они не хотят повторять жизнь своих родителей: 18 — первая работа, в 20 — свадьба, в 25 — семья и трое детей. Но чтобы доказать родителям и себе, что они готовы к самостоятельной жизни, Тёма и Ника решают съехаться — тем более у них есть бабушкина квартира Ники. Отец Ники терпеть не может Тёму, но разрешает им пожить в этой квартире. Всё было бы прекрасно, если бы эта квартира не находилась всего на несколько этажей ниже квартиры родителей Ники. Теперь их ждут все прелести взрослой жизни: поиски работы и еды, ссоры из-за глупостей, надоедливые богатые соседи и так далее. Сломит ли гражданский брак инфантильных и веселых Тёму и Нику? Или они научатся самостоятельной жизни и их любовь станет только крепче?
<a href="tracker.php?f=9&nm=%D0%93%D1%80%D0%B0%D0%B6%D0%B4%D0%B0%D0%BD%D1%81%D0%BA%D0%B8%D0%B9%20%D0%B1%D1%80%D0%B0%D0%BA" class="postLink">Все раздачи сериала</a> / Сэмпл
Реклама: Нет
Качество: WEBRip 720p
Формат: MKV
Видео кодек: H.264
Аудио кодек: AC3
Видео: MPEG-4 AVC, 1280x720 (16:9), 25.000 fps, 3524 Kbps, 0.15 bits/pixel
Аудио: 48 kHz, AC3 Dolby Digital, 2 ch, 192 Kbps
Release by: Nikolspup
General
Unique ID : 209680254906235776820150033162786740833 (0x9DBEF2BB13AF18A8AA4BB05838BE9A61)
Complete name : Downloads\Grajdanskiy.brak.2017.WEB-DL.(720p).Nikolspup\Grajdanskiy.brak.(01.seriya).2017.WEB-DL.(720p).Nikolspup.mkv
Format : Matroska
Format version : Version 2
File size : 580 MiB
Duration : 21mn 22s
Overall bit rate : 3 791 Kbps
Movie name : Grajdanskiy.brak.(01.seriya).2017.WEB-DL.(720p)@ release by Nikolspup
Encoded date : UTC 2017-01-09 17:38:05
Writing application : mkvmerge v5.8.0 ('No Sleep / Pillow') built on Sep 2 2012 15:37:04
Writing library : libebml v1.2.3 + libmatroska v1.3.0
Video #1
ID : 1
Format : AVC
Format/Info : Advanced Video Codec
Format profile : High@L3.1
Format settings, CABAC : Yes
Format settings, ReFrames : 1 frame
Format settings, GOP : M=1, N=12
Codec ID : V_MPEG4/ISO/AVC
Duration : 21mn 22s
Bit rate : 3 524 Kbps
Width : 1 280 pixels
Height : 720 pixels
Display aspect ratio : 16:9
Frame rate mode : Constant
Frame rate : 25.000 fps
Standard : Component
Color space : YUV
Chroma subsampling : 4:2:0
Bit depth : 8 bits
Scan type : Progressive
Bits/(Pixel*Frame) : 0.153
Stream size : 539 MiB (93%)
Default : No
Forced : No
Color range : Limited
Audio #2
ID : 2
Format : AC-3
Format/Info : Audio Coding 3
Mode extension : CM (complete main)
Format settings, Endianness : Big
Codec ID : A_AC3
Duration : 21mn 22s
Bit rate mode : Constant
Bit rate : 192 Kbps
Channel(s) : 2 channels
Channel positions : Front: L R
Sampling rate : 48.0 KHz
Bit depth : 16 bits
Compression mode : Lossy
Stream size : 29.4 MiB (5%)
Language : Russian
Default : Yes
Forced : Yes
(1) остановить скачивание,
(2) удалить старый торрент у себя из клиента (старые серии удалять не надо),
(3) скачать новый торрент и запустить его у себя в клиенте вместо старого, при этом указать клиенту путь в старую папку куда и должно происходить скачивание новых серий.
Ваш клиент при этом должен произвести хеширование (проверку) старой папки (если не производит сам - помогите ему сделать это), и будет докачивать только те серии которых у вас ещё нет. Старые серии при этом не удаляются, а продолжают раздаваться!
Eсли вы уже удалили старые серии, то предотвратить повторную закачку старых серий можно, отжав галочку в соответсвующих местах при запуске нового торрента. По возможности, желательно не удалять старые серии как можно дольше чтобы релизёр не столько продолжал раздавать старые серии, а смог сконцентрироваться на новых.


Трекер:  [ 11-Янв-2017 23:00 ]

  

Скачать .torrent

Размер .torrent файла 18 KB


Размер: 3.34 GB
Хэш (hash) релиза: ca84de27f0ca54ce5695cee4937a4659ba7ba371
Подписка на обновления:

Еще никто не оставлял запись к записи скачать торрент Гражданский брак Серии: 1-6 из 16 . Будь первым!

!Обратная связь