Скачать через торрент Ирина Роднина. Женщина с характером Фильм бесплатно в хорошем качестве torrent

Скачивайте на UnionPeer.org фильмы через торрент без регистрации. Новинки кино в хорошем качестве через торрент. На UnionPeer.org можно скачать через торрент фильмы 2014 и 2015 годов. Самые новые фильмы.

Скачать торрент Ирина Роднина. Женщина с характером бесплатно через .torrent фильм мультфильм сериал

Статистика раздачи
Размер:  633 MB   |    Зарегистрирован:  1 месяц 9 дней   |    .torrent скачан:  8 раз   |   
Раздают:  1  
   
 
Автор Сообщение

Galfimbul

avatar Galfimbul


Ирина Роднина. Женщина с характером

Дата/Год выпуска: 14.09.2014
Страна: Россия
Жанр: Документальный, биографический
Продолжительность: 00:51:59
Перевод: Не требуется
Режиссер: Оксана Пушкина
Телеканал: Первый

Описание: 12 сентября 2014 года трехкратная Олимпийская чемпионка, одиннадцатикратная чемпионка Европы, десятикратная чемпионка мира по фигурному катанию Ирина Роднина отметит 65-летие. Более 30 лет никто не может превзойти спортивные достижения Ирины Родниной, занесенные в Книгу рекордов Гиннеса. Из спорта она ушла непобедимой. Но мало кто знает, что "по ту сторону блестящего льда" великая спортсменка сталкивалась с сомнениями и болью, ошибками и предательством... В фильме - неизвестные обстоятельства спортивной биографии Ирины Родниной и ее драматичной личной жизни, рассказанные автором и другом Оксаной Пушкиной. Вячеслав Фетисов: "Если надо встать рядом - она встает рядом. Я могу сказать, что вот с кем бы я пошел в разведку, это с ней". "Таким сильным личностям, сильным женщинам, очень трудно подобрать человека, который бы соответствовал ее требованиям, ее высокой планке".
Сама Ирина Константиновна признается в фильме: "Когда мы выиграли право проведения этих Олимпийских игр, я, естественно, себе сказала, ну, до этих игр-то я точно доживу. Интересно, вот, в какой роли? И я очень благодарна судьбе, я прекрасно понимаю, что без этих трех Олимпиад, без моих партнеров, наверное, мне бы никогда такую роль не доверили. И мне было очень приятно, что мы с Владиком Фетисовым, опять же в паре, дали старт тем сумасшедшим Олимпийским играм. Словами это не передать. Одно могу сказать, что без той истории у меня не было бы этой истории".

В фильме принимают участие: Бывший муж и партнер Ирины Родниной - Александр Зайцев, дочь Алена, сын Александр, невестка Елена, внучка София. А также друзья Ирины Родниной: Олег Меньшиков, Михаил Куснирович, Лео Бокерия; коллеги по спорту: Андрей Миненков - чемпион мира и Европы в танцах на льду, Александр Горшков - олимпийский чемпион в танцах на льду, Елена Чайковская - заслуженный тренер России по фигурному катанию; коллеги по госслужбе: Сергей Нарышкин, Александр Жуков, Валентина Матвиенко.

Качество: SATRip
Формат: AVI
Видео: XviD, 704x448 (1.57:1), 1499 kbps, 25 fps
Аудио: AC3, 192 kbps, 48 kHz, 2 ch

Сэмпл
GeneralComplete name : T:\Torrent\Ирина Роднина. Женщина с характером (Оксана Пушкина) (2014).aviFormat : AVIFormat/Info : Audio Video InterleaveFile size : 633 MiBDuration : 51mn 59sOverall bit rate : 1 702 KbpsWriting application : VirtualDubMod 1.5.10.3 | www.virtualdub-fr.org || (build 2550/release)Writing library : VirtualDubMod build 2550/release

VideoID : 0Format : MPEG-4 VisualFormat profile : Advanced Simple@L5Format settings, BVOP : 2Format settings, QPel : NoFormat settings, GMC : No warppointsFormat settings, Matrix : Default (H.263)Codec ID : XVIDCodec ID/Hint : XviDDuration : 51mn 59sBit rate : 1 500 KbpsWidth : 704 pixelsHeight : 448 pixelsDisplay aspect ratio : 16:10Frame rate : 25.000 fpsColor space : YUVChroma subsampling : 4:2:0Bit depth : 8 bitsScan type : ProgressiveCompression mode : LossyBits/(Pixel*Frame) : 0.190Stream size : 558 MiB (88%)Writing library : XviD 1.2.1 (UTC 2008-12-04)

AudioID : 1Format : AC-3Format/Info : Audio Coding 3Mode extension : CM (complete main)Format settings, Endianness : BigCodec ID : 2000Duration : 51mn 59sBit rate mode : ConstantBit rate : 192 KbpsChannel(s) : 2 channelsChannel positions : Front: L RSampling rate : 48.0 KHzBit depth : 16 bitsCompression mode : LossyStream size : 71.4 MiB (11%)Alignment : Split accross interleavesInterleave, duration : 40 ms (1.00 video frame)Interleave, preload duration : 500 ms


Трекер:  [ 11-Янв-2017 21:00 ]

  

Скачать .torrent

Размер .torrent файла 2 KB


Размер: 633 MB
Хэш (hash) релиза: 880d8a958d02dff1ce72564c8ddbb960d8b89a1e
Подписка на обновления:

Еще никто не оставлял запись к записи скачать торрент Ирина Роднина. Женщина с характером . Будь первым!

!Обратная связь