Скачать через торрент Охотники на троллей Trollhunters Фильм бесплатно в хорошем качестве torrent

Скачивайте на UnionPeer.org фильмы через торрент без регистрации. Новинки кино в хорошем качестве через торрент. На UnionPeer.org можно скачать через торрент фильмы 2014 и 2015 годов. Самые новые фильмы.

Скачать торрент Охотники на троллей Trollhunters бесплатно через .torrent фильм мультфильм сериал

Статистика раздачи
Размер:  2.86 GB   |    Зарегистрирован:  1 месяц 9 дней   |    .torrent скачан:  9 раз   |   
Раздают:  1  
   
 
Автор Сообщение

Galfimbul

avatar Galfimbul


Охотники на троллей / Trollhunters

Страна: США
Жанр: мультфильм, фэнтези, комедия, приключения
Продолжительность серии: ~22мин
Год выпуска: 2016
Перевод: Одноголосый закадровый (Дмитрий Рыбин)
Русские субтитры: нет

Режиссёр: Родриго Блаас, Грег Тирнан / Rodrigo Blaas, Greg Tiernan
Роли озвучивали: Дмитрий Рыбин

Описание: Джим Лэйк младший - самый обыкновенный подросток. Школа, друзья, первая любовь, хулиганы... И многим покажется, что его размеренная жизнь предел мечтаний, но наш герой совсем не таков. Он хочет чего-то большего, чем жизнь старшеклассника. Чтож... Желания имеют свойство сбываться. Гильермо дель Торо приглашает вас в увлекательное путешествие по миру троллей. Впереди нас ждут захватывающие приключения и потрясающая история о взрослении, мужестве и настоящем подвиге. Устраивайтесь по-удобнее и вперед навстречу чудесам вместе с Охотниками на троллей.

Список серий:
1. Становление: Часть 1 / Becoming: Part 1
2. Становление: Часть 2 / Becoming: Part 2
3. Зачем же ты Охотник?/ Wherefore Art Thou, Trollhunter?
4. Гном Твой Враг / Gnome Your Enemy
5. Вака Чака! / Waka Chaka!
6. Победный проигрышь или Драал / Win Lose or Draal

Качество: WEBRip
Формат: MKV
Видео: AVC, 1280x720, 23.976 fps, ~2000 Kbps
Аудио 1 [RUS]: AC-3, 48.0 KHz, 2 ch, 192 Kbps
Аудио 2 [ENG]: AC-3, 48.0 KHz, 6 ch, 384 Kbps
Субтитры: отсутствуют

<a href="tracker.php?f%5B%5D=921&f%5B%5D=&nm=Trollhunters" class="postLink">Все раздачи мультсериала</a>

<span class="post-font-cursive1">Добавлены 2 новые серии 11.01.2017</span>
VideoID : 1Format : AVCFormat/Info : Advanced Video CodecFormat profile : High@L4.1Format settings, CABAC : YesFormat settings, ReFrames : 9 framesCodec ID : V_MPEG4/ISO/AVCDuration : 21mn 41sBit rate : 2 120 KbpsWidth : 1 280 pixelsHeight : 720 pixelsDisplay aspect ratio : 16:9Frame rate mode : ConstantFrame rate : 23.976 fpsColor space : YUVChroma subsampling : 4:2:0Bit depth : 8 bitsScan type : ProgressiveBits/(Pixel*Frame) : 0.096Stream size : 329 MiB (77%)Writing library : x264 core 148 r2638 7599210Encoding settings : cabac=1 / ref=9 / deblock=1:-3:-3 / analyse=0x3:0x133 / me=umh / subme=11 / psy=1 / psy_rd=0.40:0.00 / mixed_ref=1 / me_range=32 / chroma_me=1 / trellis=2 / 8x8dct=1 / cqm=0 / deadzone=21,11 / fast_pskip=0 / chroma_qp_offset=-2 / threads=12 / lookahead_threads=1 / sliced_threads=0 / nr=0 / decimate=1 / interlaced=0 / bluray_compat=0 / constrained_intra=0 / bframes=5 / b_pyramid=2 / b_adapt=2 / b_bias=0 / direct=3 / weightb=1 / open_gop=0 / weightp=2 / keyint=240 / keyint_min=23 / scenecut=40 / intra_refresh=0 / rc_lookahead=60 / rc=crf / mbtree=1 / crf=18.0 / qcomp=0.60 / qpmin=0 / qpmax=69 / qpstep=4 / ip_ratio=1.40 / aq=3:0.70Default : YesForced : No

Audio #1ID : 2Format : AC-3Format/Info : Audio Coding 3Mode extension : CM (complete main)Format settings, Endianness : BigCodec ID : A_AC3Duration : 21mn 41sBit rate mode : ConstantBit rate : 192 KbpsChannel(s) : 2 channelsChannel positions : Front: L RSampling rate : 48.0 KHzBit depth : 16 bitsCompression mode : LossyStream size : 29.8 MiB (7%)Title : Trollhunter_rusLanguage : RussianDefault : YesForced : No

Audio #2ID : 3Format : AC-3Format/Info : Audio Coding 3Mode extension : CM (complete main)Format settings, Endianness : BigCodec ID : A_AC3Duration : 21mn 41sBit rate mode : ConstantBit rate : 384 KbpsChannel(s) : 6 channelsChannel positions : Front: L C R, Side: L R, LFESampling rate : 48.0 KHzBit depth : 16 bitsCompression mode : LossyStream size : 59.6 MiB (14%)Title : @BDNB [ENG] Dolby Digital 5.1Language : EnglishDefault : NoForced : No


Трекер:  [ 11-Янв-2017 21:00 ]

  

Скачать .torrent

Размер .torrent файла 15 KB


Размер: 2.86 GB
Хэш (hash) релиза: b4f3aecd9d7405ca016bbaf04565513472551bc1
Подписка на обновления:

Торренты, похожие на Охотники на троллей Trollhunters скачать торрент

Форум Название Автор Размер S L Добавлен
Мультсериалы ·· Охотники на троллей / Trollhunters / Сезон: 1 / Серии: 1-4 из 26 (Родриго Блаас, Грег Тирнан / Rodrigo Blaas, Greg Tiernan) [2016, США, мультфильм, фэнтези, комедия, приключения, WEBRip 720p] VO Galfimbul 20152878061.88 GB 0 0 1483887805

18:03

8-Янв-17

Еще никто не оставлял запись к записи скачать торрент Охотники на троллей Trollhunters . Будь первым!

!Обратная связь