Скачать через торрент Неоконченный урок Фильм бесплатно в хорошем качестве torrent

Скачивайте на UnionPeer.org фильмы через торрент без регистрации. Новинки кино в хорошем качестве через торрент. На UnionPeer.org можно скачать через торрент фильмы 2014 и 2015 годов. Самые новые фильмы.

Скачать торрент Неоконченный урок бесплатно через .torrent фильм мультфильм сериал

Если у вас наблюдаются проблемы со скриншотами, переходом по ссылками, скачиванием торрентов - проблемы в блокировщике рекламы AdBlock. #хорошегоДня!


Статистика раздачи
Размер:  1.45 GB   |    Зарегистрирован:  9 месяцев   |    .torrent скачан:  31 раз   |   
Раздают:  1  
   
Загрузка...
 
Автор Сообщение

Galfimbul

avatar Galfimbul


<span class="post-font-serif1">Неоконченный урок

Жанр: мелодрама
Год выпуска: 2009
Продолжительность: 01:24:48

Режиссёр: Игорь Хомский

В ролях: Анна Яновская, Алексей Воробьёв, Михаил Полицеймако, Татьяна Кравченко, Павел Деревянко, Ольга Волкова, Анна Старшенбаум, Марина Зубанова, Светлана Брейкина, Мария Костикова

Описание: У Инны Витальевны благополучная жизнь - работа, семья. Все рушится,когда "доброжелательная подруга" открывает глаза на не совсем примерное поведение мужа. Поверить в себя и в то, что жизнь продолжается Инне поможет влюбленность в нее Игоря, ученика вечерней школы.

Качество видео: <a href="viewtopic.php?t=3702561" class="postLink">SATRip</a>
Формат видео: AVI

Видео: 704x400 (1.76:1), 25 fps, XviD build 73 ~2253 kbps avg, 0.32 bit/pixel
Аудио: 48 kHz, AC3 Dolby Digital, 2/0 (L,R) ch, ~192 kbps</span>

<a href="viewtopic.php?t=2010246" class="postLink">...2010246</a>
http://screenshotcomparison.com/comparison/196701
General
Complete name : H:\Неоконченный.урок.2009.satrip_[1.46]_[teko].avi
Format : AVI
Format/Info : Audio Video Interleave
File size : 1.45 GiB
Duration : 1h 24mn
Overall bit rate : 2 456 Kbps
Writing application : VirtualDubMod 1.5.10.3 | www.virtualdub-fr.org || (build 2550/release)
Writing library : VirtualDubMod build 2550/release

Video
ID : 0
Format : MPEG-4 Visual
Format profile : Advanced Simple@L5
Format settings, BVOP : 2
Format settings, QPel : No
Format settings, GMC : No warppoints
Format settings, Matrix : Custom
Codec ID : XVID
Codec ID/Hint : XviD
Duration : 1h 24mn
Bit rate : 2 254 Kbps
Width : 704 pixels
Height : 400 pixels
Display aspect ratio : 16:9
Frame rate : 25.000 fps
Color space : YUV
Chroma subsampling : 4:2:0
Bit depth : 8 bits
Scan type : Progressive
Compression mode : Lossy
Bits/(Pixel*Frame) : 0.320
Stream size : 1.34 GiB (92%)
Writing library : XviD 73

Audio
ID : 1
Format : AC-3
Format/Info : Audio Coding 3
Mode extension : CM (complete main)
Format settings, Endianness : Big
Codec ID : 2000
Duration : 1h 24mn
Bit rate mode : Constant
Bit rate : 192 Kbps
Channel(s) : 2 channels
Channel positions : Front: L R
Sampling rate : 48.0 KHz
Frame rate : 31.250 fps (1536 spf)
Compression mode : Lossy
Stream size : 116 MiB (8%)
Alignment : Split accross interleaves
Interleave, duration : 40 ms (1.00 video frame)
Interleave, preload duratio : 500 ms
Релиз группы:

<a href="viewtopic.php?t=1677970" class="postLink"> </a>



Трекер:  [ 11-Янв-2017 19:30 ]

  

Скачать .torrent

Размер .torrent файла 15 KB


Размер: 1.45 GB
Хэш (hash) релиза: 251580ca2d13a71a2ba7a98d18ba5847ab466f70
Подписка на обновления:

Торренты, похожие на Неоконченный урок скачать торрент

Форум Название Автор Размер S L Добавлен
Российские фильмы до 2016 ·· Неоконченный урок (Анатолий Тютюнник) [1980, мелодрама, SATRip] Galfimbul 23392563202.18 GB 0 0 1484206214

10:30

12-Янв-17

Еще никто не оставлял запись к записи скачать торрент Неоконченный урок . Будь первым!

!Обратная связь