Скачать через торрент Микки Маус: О, Да, Деньки Былые Mickey Mouse: Ye Olden Days Фильм бесплатно в хорошем качестве torrent

Скачивайте на UnionPeer.org фильмы через торрент без регистрации. Новинки кино в хорошем качестве через торрент. На UnionPeer.org можно скачать через торрент фильмы 2014 и 2015 годов. Самые новые фильмы.

Скачать торрент Микки Маус: О, Да, Деньки Былые Mickey Mouse: Ye Olden Days бесплатно через .torrent фильм мультфильм сериал

Статистика раздачи
Размер:  2.24 GB   |    Зарегистрирован:  1 месяц 15 дней   |    .torrent скачан:  10 раз   |   
Раздают:  1  
   
 
Автор Сообщение

Galfimbul

avatar Galfimbul


<span class="post-font-serif2">Микки Маус: О, Да, Деньки Былые / Mickey Mouse: Ye Olden Days

Страна: США
Жанр: Мультфильм, комедия, семейный, короткометражный
Продолжительность: 00:08:18
Год выпуска: 1933
Перевод 1: Профессиональный (дублированный) - Студия "Невафильм"
Перевод 2: Авторский (одноголосый закадровый) - Юрий Живов
Русские субтитры: есть

Режиссёр: Берт Джиллет / Burt Gillett
Роли озвучивали: Пинто Колвиг, Уолт Дисней, Марселлит Гарнер

Описание: Сюжет короткометражки повествует о всем известных героев старой диснеевской анимации, попавших на этот раз в эпоху Средневековья.

Качество: BDRemux 1080p
Формат: MKV
Видео: MPEG-4 AVC, 1920x1080, 23.976 fps, 37888 kbps
Аудио 1: AC3, 48 kHz, 2 ch, 320 kbps, [Русский, Профессиональный (дублированный) | "Невафильм" [BD CEE]]
Аудио 2: AC3, 48 kHz, 2 ch, 192 kbps, [Русский, Авторский (одноголосый закадровый) | Юрий Живов [VHS]]
Аудио 3: AC3, 48 kHz, 2 ch, 320 kbps, [English, Original]
Субтитры: Русские, Русские (надписи), English, English (for the hearing impaired)</span>
ОбщееУникальный идентификатор : 249949485374764752238674672530350166545 (0xBC0A8514AD1BF099AD5718EFC0345211)Полное имя : D:\Фильмы\Микки Маус - О, Да, Деньки Былые (1933) BDRemux (1080p).mkvФормат : MatroskaВерсия формата : Version 4 / Version 2Размер файла : 2,24 ГбайтПродолжительность : 8 м. 18 с.Режим общего битрейта : ПеременныйОбщий поток : 38,6 Мбит/секНазвание фильма : Микки Маус: О, Да, Деньки Былые / Mickey Mouse: Ye Olden Days / 1933 / ДБ, АП (Живов), СТ / Blu-Ray Remux (1080p)Дата кодирования : UTC 2016-09-23 17:28:23Программа кодирования : mkvmerge v9.4.2 ('So High') 32bitБиблиотека кодирования : libebml v1.3.4 + libmatroska v1.4.5

ВидеоИдентификатор : 1Формат : AVCФормат/Информация : Advanced Video CodecПрофиль формата : High@L4.1Параметр CABAC формата : ДаПараметр ReFrames формата : 4 кадраИдентификатор кодека : V_MPEG4/ISO/AVCПродолжительность : 8 м. 18 с.Вид битрейта : ПеременныйБитрейт : 37,7 Мбит/секМаксимальный битрейт : 40,0 Мбит/секШирина : 1920 пикселейВысота : 1080 пикселейСоотношение сторон : 16:9Режим частоты кадров : ПостоянныйЧастота кадров : 23,976 (24000/1001) кадра/секЦветовое пространство : YUVСубдискретизация насыщенности : 4:2:0Битовая глубина : 8 битТип развёртки : ПрогрессивнаяБит/(Пиксели*Кадры) : 0.759Размер потока : 2,19 Гбайт (98%)Заголовок : MPEG-4 AVCЯзык : EnglishDefault : ДаForced : Нет

Аудио #1Идентификатор : 2Формат : AC-3Формат/Информация : Audio Coding 3Расширение режима : CM (complete main)Параметр Endianness формата : BigИдентификатор кодека : A_AC3Продолжительность : 8 м. 18 с.Вид битрейта : ПостоянныйБитрейт : 320 Кбит/секКаналы : 2 каналаРасположение каналов : Front: L RЧастота : 48,0 КГцЧастота кадров : 31,250 кадров/сек (1536 spf)Метод сжатия : С потерямиРазмер потока : 19,0 Мбайт (1%)Заголовок : Профессиональный (дублированный) | "Невафильм"Язык : RussianDefault : ДаForced : Нет

Аудио #2Идентификатор : 3Формат : AC-3Формат/Информация : Audio Coding 3Расширение режима : CM (complete main)Параметр Endianness формата : BigИдентификатор кодека : A_AC3Продолжительность : 8 м. 18 с.Вид битрейта : ПостоянныйБитрейт : 192 Кбит/секКаналы : 2 каналаРасположение каналов : Front: L RЧастота : 48,0 КГцЧастота кадров : 31,250 кадров/сек (1536 spf)Метод сжатия : С потерямиРазмер потока : 11,4 Мбайт (0%)Заголовок : Авторский (одноголосый закадровый) | Юрий ЖивовЯзык : RussianDefault : НетForced : Нет

Аудио #3Идентификатор : 4Формат : AC-3Формат/Информация : Audio Coding 3Расширение режима : CM (complete main)Параметр Endianness формата : BigИдентификатор кодека : A_AC3Продолжительность : 8 м. 18 с.Вид битрейта : ПостоянныйБитрейт : 320 Кбит/секКаналы : 2 каналаРасположение каналов : Front: L RЧастота : 48,0 КГцЧастота кадров : 31,250 кадров/сек (1536 spf)Метод сжатия : С потерямиРазмер потока : 19,0 Мбайт (1%)Заголовок : OriginalЯзык : EnglishDefault : НетForced : Нет

Текст #1Идентификатор : 5Формат : UTF-8Идентификатор кодека : S_TEXT/UTF8Идентификатор кодека/Информация : UTF-8 Plain TextПродолжительность : 8 м. 11 с.Битрейт : 51 бит/секCount of elements : 68Размер потока : 3,10 Кбайт (0%)Заголовок : Русские | SRTЯзык : RussianDefault : НетForced : Нет

Текст #2Идентификатор : 6Формат : UTF-8Идентификатор кодека : S_TEXT/UTF8Идентификатор кодека/Информация : UTF-8 Plain TextПродолжительность : 4 м. 3 с.Битрейт : 1 бит/секCount of elements : 3Размер потока : 32,0 байт (0%)Заголовок : Русские | SRT (надписи)Язык : RussianDefault : ДаForced : Нет

Текст #3Идентификатор : 7Формат : UTF-8Идентификатор кодека : S_TEXT/UTF8Идентификатор кодека/Информация : UTF-8 Plain TextПродолжительность : 7 м. 44 с.Битрейт : 36 бит/секCount of elements : 64Размер потока : 2,07 Кбайт (0%)Заголовок : English | SRTЯзык : EnglishDefault : НетForced : Нет

Текст #4Идентификатор : 8Формат : UTF-8Идентификатор кодека : S_TEXT/UTF8Идентификатор кодека/Информация : UTF-8 Plain TextПродолжительность : 8 м. 10 с.Битрейт : 39 бит/секCount of elements : 80Размер потока : 2,36 Кбайт (0%)Заголовок : English | SRT (for the hearing impaired)Язык : EnglishDefault : НетForced : Нет

Меню00:00:00.000 : :Chapter 0100:08:18.247 : :Chapter 02


Трекер:  [ 11-Янв-2017 18:00 ]

  

Скачать .torrent

Размер .torrent файла 11 KB


Размер: 2.24 GB
Хэш (hash) релиза: 5f43fdc9fae31d48097efa64f70049e7d8ebbb3a
Подписка на обновления:

Торренты, похожие на Микки Маус: О, Да, Деньки Былые Mickey Mouse: Ye Olden Days скачать торрент

Форум Название Автор Размер S L Добавлен
Мультфильмы до 2016 ·· Микки Маус: О, Да, Деньки Былые / Микки Маус: Вы, Былые Времена / Mickey Mouse: Ye Olden Days (Берт Джиллет / Burt Gillett) [1933, США, Мультфильм, комедия, семейный, короткометражный, BDRemux] Dub + AVO + Rus Sub Galfimbul 24037907612.24 GB 0 0 1474812327

17:05

25-Сен-16

Мультфильмы до 2016 ·· Микки Маус: О, Да, Деньки Былые / Микки Маус: Вы, Былые Времена / Mickey Mouse: Ye Olden Days (Берт Джиллет / Burt Gillett) [1933, США, Мультфильм, комедия, семейный, короткометражный, BDRemux] Dub + AVO + Rus Sub Galfimbul 24037886382.24 GB 0 0 1474642587

17:56

23-Сен-16

Мультфильмы до 2016 ·· Микки Маус: О, Да, Деньки Былые / Микки Маус: Вы, Былые Времена / Mickey Mouse: Ye Olden Days (Берт Джиллет / Burt Gillett) [1933, США, Мультфильм, комедия, семейный, короткометражный, BDRemux] Dub + AVO + Rus Sub Galfimbul 24037881552.24 GB 0 0 1472052397

18:26

24-Авг-16

Мультфильмы до 2016 ·· Микки Маус: О, Да, Деньки Былые / Микки Маус: Вы, Былые Времена / Mickey Mouse: Ye Olden Days (Берт Джиллет / Burt Gillett) [1933, США, Мультфильм, комедия, семейный, короткометражный, BDRemux] Dub + AVO + Rus Sub Galfimbul 24037874682.24 GB 0 0 1466848873

13:01

25-Июн-16

Мультфильмы до 2016 ·· Микки Маус: О, Да, Деньки Былые / Микки Маус: Вы, Былые Времена / Mickey Mouse: Ye Olden Days (Берт Джиллет / Burt Gillett) [1933, США, Мультфильм, комедия, семейный, короткометражный, BDRemux] Dub + AVO + Rus Sub Galfimbul 24037874952.24 GB 0 0 1465839388

20:36

13-Июн-16

Мультфильмы до 2016 ·· Микки Маус: О, Да, Деньки Былые / Микки Маус: Вы, Былые Времена / Mickey Mouse: Ye Olden Days (Берт Джиллет / Burt Gillett) [1933, США, Мультфильм, комедия, семейный, короткометражный, BDRemux] Dub + AVO + Rus Sub Galfimbul 24037744542.24 GB 0 0 1465324817

21:40

7-Июн-16

Еще никто не оставлял запись к записи скачать торрент Микки Маус: О, Да, Деньки Былые Mickey Mouse: Ye Olden Days . Будь первым!

!Обратная связь