Скачать через торрент Забавные Мелодии: Кузнечик и Муравьи Silly Symphony: The Grasshopper And The Ants Фильм бесплатно в хорошем качестве torrent

Скачивайте на UnionPeer.org фильмы через торрент без регистрации. Новинки кино в хорошем качестве через торрент. На UnionPeer.org можно скачать через торрент фильмы 2014 и 2015 годов. Самые новые фильмы.

Скачать торрент Забавные Мелодии: Кузнечик и Муравьи Silly Symphony: The Grasshopper And The Ants бесплатно через .torrent фильм мультфильм сериал

Если у вас наблюдаются проблемы со скриншотами, переходом по ссылками, скачиванием торрентов - проблемы в блокировщике рекламы AdBlock. #хорошегоДня!


Статистика раздачи
Размер:  1.12 GB   |    Зарегистрирован:  8 месяцев   |    .torrent скачан:  12 раз   |   
Раздают:  1  
   
Загрузка...
 
Автор Сообщение

Galfimbul

avatar Galfimbul


<span class="post-font-serif2">Забавные Мелодии: Кузнечик и Муравьи / Silly Symphony: The Grasshopper And The Ants</span>

<span class="post-font-serif2">Страна: США
Жанр: Мультфильм, короткометражный, семейный, комедия
Продолжительность: 00:08:28
Год выпуска: 1934
Перевод 1: Профессиональный (дублированный) - Студия "Невафильм"
Перевод 2: Профессиональный (многоголосый закадровый)
Перевод 3: Профессиональный (многоголосый закадровый)
Перевод 4: Авторский (одноголосый закадровый) - Александр Кашкин
Русские субтитры: есть

Режиссёр: Уилфред Джексон / Wilfred Jackson
Роли озвучивали: Пинто Колвиг

Описание: Кузнечик все лето веселится и играет на скрипке, а трудолюбивые муравьи делают запасы на зиму. Но что же случится, когда наступит зима…

Качество: BDRemux 1080p
Формат: MKV
Видео: MPEG-4 AVC, 1920x1080, 23.976 fps, 18022 kbps
Аудио 1: AC3, 48 kHz, 2 ch, 192 kbps [Русский, Профессиональный (дублированный) | "Невафильм"]
Аудио 2: AC3, 48 kHz, 2 ch, 192 kbps [Русский, Профессиональный (многоголосый закадровый) | неизвестный | v. 1]
Аудио 3: AC3, 48 kHz, 2 ch, 192 kbps [Русский, Профессиональный (многоголосый закадровый) | неизвестный | v. 2]
Аудио 4: AC3, 48 kHz, 2 ch, 192 kbps [Русский, Авторский (одноголосый закадровый) | Александр Кашкин]
Аудио 5: AC3, 48 kHz, 2 ch, 192 kbps [English, Original]
Субтитры: Русские, English (for the hearing impaired)</span>
ОбщееУникальный идентификатор : 247024596100238573877961581470928114399 (0xB9D734E7DD23984B9C99960BD8F892DF)Полное имя : D:\Фильмы\Забавные Мелодии - Кузнечик и Муравьи (1934) BDRemux (1080p).mkvФормат : MatroskaВерсия формата : Version 4 / Version 2Размер файла : 1,12 ГбайтПродолжительность : 8 м. 28 с.Режим общего битрейта : ПеременныйОбщий поток : 18,9 Мбит/секНазвание фильма : Забавные Мелодии: Кузнечик и Муравьи / Silly Symphony: The Grasshopper And The Ants / 1934 / ДБ, 2 x ПМ, АП (Кашкин) / Blu-Ray Remux (1080p)Дата кодирования : UTC 2016-09-25 15:49:51Программа кодирования : mkvmerge v9.4.2 ('So High') 32bitБиблиотека кодирования : libebml v1.3.4 + libmatroska v1.4.5

ВидеоИдентификатор : 1Формат : AVCФормат/Информация : Advanced Video CodecПрофиль формата : High@L4.1Параметр CABAC формата : ДаПараметр ReFrames формата : 4 кадраИдентификатор кодека : V_MPEG4/ISO/AVCПродолжительность : 8 м. 28 с.Вид битрейта : ПеременныйБитрейт : 18,0 Мбит/секМаксимальный битрейт : 40,0 Мбит/секШирина : 1920 пикселейВысота : 1080 пикселейСоотношение сторон : 16:9Режим частоты кадров : ПостоянныйЧастота кадров : 29,970 (30000/1001) кадров/секЦветовое пространство : YUVСубдискретизация насыщенности : 4:2:0Битовая глубина : 8 битТип развёртки : MBAFFМетод сохранения типа развёртки : Чередующиеся поляПорядок развёртки : Верхнее поле первоеБит/(Пиксели*Кадры) : 0.289Размер потока : 1,06 Гбайт (95%)Заголовок : MPEG-4 AVCЯзык : EnglishDefault : ДаForced : НетЦветовой диапазон : LimitedОсновные цвета : BT.709Характеристики трансфера : BT.709Коэффициенты матрицы : BT.709

Аудио #1Идентификатор : 2Формат : AC-3Формат/Информация : Audio Coding 3Расширение режима : CM (complete main)Параметр Endianness формата : BigИдентификатор кодека : A_AC3Продолжительность : 8 м. 28 с.Вид битрейта : ПостоянныйБитрейт : 192 Кбит/секКаналы : 2 каналаРасположение каналов : Front: L RЧастота : 48,0 КГцЧастота кадров : 31,250 кадров/сек (1536 spf)Метод сжатия : С потерямиРазмер потока : 11,6 Мбайт (1%)Заголовок : Профессиональный (дублированный) | "Невафильм"Язык : RussianDefault : ДаForced : Нет

Аудио #2Идентификатор : 3Формат : AC-3Формат/Информация : Audio Coding 3Расширение режима : CM (complete main)Параметр Endianness формата : BigИдентификатор кодека : A_AC3Продолжительность : 8 м. 28 с.Вид битрейта : ПостоянныйБитрейт : 192 Кбит/секКаналы : 2 каналаРасположение каналов : Front: L RЧастота : 48,0 КГцЧастота кадров : 31,250 кадров/сек (1536 spf)Метод сжатия : С потерямиРазмер потока : 11,6 Мбайт (1%)Заголовок : Профессиональный (многоголосый закадровый) | неизвестный | v. 1Язык : RussianDefault : НетForced : Нет

Аудио #3Идентификатор : 4Формат : AC-3Формат/Информация : Audio Coding 3Расширение режима : CM (complete main)Параметр Endianness формата : BigИдентификатор кодека : A_AC3Продолжительность : 8 м. 28 с.Вид битрейта : ПостоянныйБитрейт : 192 Кбит/секКаналы : 2 каналаРасположение каналов : Front: L RЧастота : 48,0 КГцЧастота кадров : 31,250 кадров/сек (1536 spf)Метод сжатия : С потерямиРазмер потока : 11,6 Мбайт (1%)Заголовок : Профессиональный (многоголосый закадровый) | неизвестный | v. 2Язык : RussianDefault : НетForced : Нет

Аудио #4Идентификатор : 5Формат : AC-3Формат/Информация : Audio Coding 3Расширение режима : CM (complete main)Параметр Endianness формата : BigИдентификатор кодека : A_AC3Продолжительность : 8 м. 28 с.Вид битрейта : ПостоянныйБитрейт : 192 Кбит/секКаналы : 2 каналаРасположение каналов : Front: L RЧастота : 48,0 КГцЧастота кадров : 31,250 кадров/сек (1536 spf)Метод сжатия : С потерямиРазмер потока : 11,6 Мбайт (1%)Заголовок : Авторский (одноголосый закадровый) | Александр КашкинЯзык : RussianDefault : НетForced : Нет

Аудио #5Идентификатор : 6Формат : AC-3Формат/Информация : Audio Coding 3Расширение режима : CM (complete main)Параметр Endianness формата : BigИдентификатор кодека : A_AC3Продолжительность : 8 м. 28 с.Вид битрейта : ПостоянныйБитрейт : 192 Кбит/секКаналы : 2 каналаРасположение каналов : Front: L RЧастота : 48,0 КГцЧастота кадров : 31,250 кадров/сек (1536 spf)Метод сжатия : С потерямиРазмер потока : 11,6 Мбайт (1%)Заголовок : OriginalЯзык : EnglishDefault : НетForced : Нет

Текст #1Идентификатор : 7Формат : UTF-8Идентификатор кодека : S_TEXT/UTF8Идентификатор кодека/Информация : UTF-8 Plain TextПродолжительность : 7 м. 50 с.Битрейт : 23 бит/секCount of elements : 25Размер потока : 1,34 Кбайт (0%)Заголовок : Русские | SRTЯзык : RussianDefault : НетForced : Нет

Текст #2Идентификатор : 8Формат : UTF-8Идентификатор кодека : S_TEXT/UTF8Идентификатор кодека/Информация : UTF-8 Plain TextПродолжительность : 7 м. 46 с.Битрейт : 21 бит/секCount of elements : 40Размер потока : 1,23 Кбайт (0%)Заголовок : English | SRT (for the hearing impaired)Язык : EnglishDefault : НетForced : Нет

Меню00:00:00.000 : :Chapter 0100:08:27.807 : :Chapter 02


Трекер:  [ 11-Янв-2017 18:00 ]

  

Скачать .torrent

Размер .torrent файла 11 KB


Размер: 1.12 GB
Хэш (hash) релиза: fc9a495f0d6eb7b7f3ffa5f5707ad2b471770927
Подписка на обновления:

Еще никто не оставлял запись к записи скачать торрент Забавные Мелодии: Кузнечик и Муравьи Silly Symphony: The Grasshopper And The Ants . Будь первым!

!Обратная связь