Скачать через торрент Микки Маус: Сквозь зеркало Mickey Mouse: Thru The Mirror Фильм бесплатно в хорошем качестве torrent

Скачивайте на UnionPeer.org фильмы через торрент без регистрации. Новинки кино в хорошем качестве через торрент. На UnionPeer.org можно скачать через торрент фильмы 2014 и 2015 годов. Самые новые фильмы.

Скачать торрент Микки Маус: Сквозь зеркало Mickey Mouse: Thru The Mirror бесплатно через .torrent фильм мультфильм сериал

Статистика раздачи
Размер:  1.35 GB   |    Зарегистрирован:  1 месяц 14 дней   |    .torrent скачан:  9 раз   |   
Раздают:  1  
   
 
Автор Сообщение

Galfimbul

avatar Galfimbul


<span class="post-font-serif2">Микки Маус: Сквозь зеркало / Микки Маус: В Зазеркалье / Mickey Mouse: Thru The Mirror</span>

<span class="post-font-serif2">Страна: США
Жанр: Мультфильм, короткометражный, приключения, детский
Продолжительность: 00:08:50
Год выпуска: 1936
Перевод 1: Профессиональный (дублированный) - Студия "Невафильм"
Перевод 2: Профессиональный (многоголосый закадровый)
Перевод 3: Профессиональный (многоголосый закадровый)
Перевод 4: Профессиональный (многоголосый закадровый)
Перевод 5: Студийный (одноголосый закадровый) - "DVD-магия"
Перевод 6: Авторский (одноголосый закадровый) - Сергей Визгунов (ранний)
Перевод 7: Авторский (одноголосый закадровый) - Сергей Визгунов (поздний)
Русские субтитры: есть

Режиссёр: Дэвид Хэнд / David Hand
Роли озвучивали: Уолт Дисней

Описание: Микки, словно Алиса, оказался в зазеркалье. Здесь оживает мебель, а съев грецкий орех, можно уменьшиться. Микки танцует с колодой карт и знакомится с самой Червонной королевой.

Качество: BDRemux 1080p
Формат: MKV
Видео: MPEG-4 AVC, 1920x1080, 23.976 fps, 18057 kbps
Аудио 1: AC3, 48 kHz, 2 ch, 192 kbps [Русский, Профессиональный (дублированный) | "Невафильм"]
Аудио 2: AC3, 48 kHz, 2 ch, 192 kbps [Русский, Профессиональный (многоголосый закадровый) | неизвестный | v. 1]
Аудио 3: AC3, 48 kHz, 2 ch, 192 kbps [Русский, Профессиональный (многоголосый закадровый) | неизвестный | v. 2]
Аудио 4: AC3, 48 kHz, 2 ch, 192 kbps [Русский, Профессиональный (многоголосый закадровый) | неизвестный | v. 3]
Аудио 5: AC3, 48 kHz, 2 ch, 192 kbps [Русский, Студийный (одноголосый закадровый) | DVD-магия]
Аудио 6: AC3, 48 kHz, 2 ch, 192 kbps [Русский, Авторский (одноголосый закадровый) | Сергей Визгунов (ранний)]
Аудио 7: AC3, 48 kHz, 2 ch, 192 kbps [Русский, Авторский (одноголосый закадровый) | Сергей Визгунов (поздний)]
Аудио 8: AC3, 48 kHz, 2 ch, 320 kbps [English, Original]
Субтитры: Русские, English, English (for the hearing impaired)</span>
ОбщееУникальный идентификатор : 238860553454608478813567066261061551637 (0xB3B2DE86B77A40918C7115A0E602C615)Полное имя : D:\Фильмы\Микки Маус - Сквозь Зеркало (1936) BDRemux (1080p).mkvФормат : MatroskaВерсия формата : Version 4 / Version 2Размер файла : 1,35 ГбайтПродолжительность : 8 м. 49 с.Режим общего битрейта : ПеременныйОбщий поток : 21,8 Мбит/секНазвание фильма : Микки Маус: Сквозь Зеркало / Mickey Mouse: Through The Mirror / 1936 / ДБ, 3 x ПМ, ПО, АП (Визгунов) / Blu-Ray Remux (1080p)Дата кодирования : UTC 2016-09-27 15:05:08Программа кодирования : mkvmerge v9.4.2 ('So High') 32bitБиблиотека кодирования : libebml v1.3.4 + libmatroska v1.4.5

ВидеоИдентификатор : 1Формат : AVCФормат/Информация : Advanced Video CodecПрофиль формата : High@L4.1Параметр CABAC формата : ДаПараметр ReFrames формата : 3 кадраПараметр GOP формата : M=2, N=24Идентификатор кодека : V_MPEG4/ISO/AVCПродолжительность : 8 м. 49 с.Вид битрейта : ПеременныйБитрейт : 20,2 Мбит/секМаксимальный битрейт : 40,0 Мбит/секШирина : 1920 пикселейВысота : 1080 пикселейСоотношение сторон : 16:9Режим частоты кадров : ПостоянныйЧастота кадров : 23,976 (24000/1001) кадра/секСтандарт вещания : NTSCЦветовое пространство : YUVСубдискретизация насыщенности : 4:2:0Битовая глубина : 8 битТип развёртки : ПрогрессивнаяБит/(Пиксели*Кадры) : 0.406Размер потока : 1,24 Гбайт (92%)Заголовок : MPEG-4 AVCЯзык : EnglishDefault : ДаForced : НетЦветовой диапазон : Limited

Аудио #1Идентификатор : 2Формат : AC-3Формат/Информация : Audio Coding 3Расширение режима : CM (complete main)Параметр Endianness формата : BigИдентификатор кодека : A_AC3Продолжительность : 8 м. 49 с.Вид битрейта : ПостоянныйБитрейт : 192 Кбит/секКаналы : 2 каналаРасположение каналов : Front: L RЧастота : 48,0 КГцЧастота кадров : 31,250 кадров/сек (1536 spf)Метод сжатия : С потерямиРазмер потока : 12,1 Мбайт (1%)Заголовок : Профессиональный (дублированный) | "Невафильм"Язык : RussianDefault : ДаForced : Нет

Аудио #2Идентификатор : 3Формат : AC-3Формат/Информация : Audio Coding 3Расширение режима : CM (complete main)Параметр Endianness формата : BigИдентификатор кодека : A_AC3Продолжительность : 8 м. 49 с.Вид битрейта : ПостоянныйБитрейт : 192 Кбит/секКаналы : 2 каналаРасположение каналов : Front: L RЧастота : 48,0 КГцЧастота кадров : 31,250 кадров/сек (1536 spf)Метод сжатия : С потерямиРазмер потока : 12,1 Мбайт (1%)Заголовок : Профессиональный (многоголосый закадровый) | неизвестный | v. 1Язык : RussianDefault : НетForced : Нет

Аудио #3Идентификатор : 4Формат : AC-3Формат/Информация : Audio Coding 3Расширение режима : CM (complete main)Параметр Endianness формата : BigИдентификатор кодека : A_AC3Продолжительность : 8 м. 49 с.Вид битрейта : ПостоянныйБитрейт : 192 Кбит/секКаналы : 2 каналаРасположение каналов : Front: L RЧастота : 48,0 КГцЧастота кадров : 31,250 кадров/сек (1536 spf)Метод сжатия : С потерямиРазмер потока : 12,1 Мбайт (1%)Заголовок : Профессиональный (многоголосый закадровый) | неизвестный | v. 2Язык : RussianDefault : НетForced : Нет

Аудио #4Идентификатор : 5Формат : AC-3Формат/Информация : Audio Coding 3Расширение режима : CM (complete main)Параметр Endianness формата : BigИдентификатор кодека : A_AC3Продолжительность : 8 м. 49 с.Вид битрейта : ПостоянныйБитрейт : 192 Кбит/секКаналы : 2 каналаРасположение каналов : Front: L RЧастота : 48,0 КГцЧастота кадров : 31,250 кадров/сек (1536 spf)Метод сжатия : С потерямиРазмер потока : 12,1 Мбайт (1%)Заголовок : Профессиональный (многоголосый закадровый) | неизвестный | v. 3Язык : RussianDefault : НетForced : Нет

Аудио #5Идентификатор : 6Формат : AC-3Формат/Информация : Audio Coding 3Расширение режима : CM (complete main)Параметр Endianness формата : BigИдентификатор кодека : A_AC3Продолжительность : 8 м. 49 с.Вид битрейта : ПостоянныйБитрейт : 192 Кбит/секКаналы : 2 каналаРасположение каналов : Front: L RЧастота : 48,0 КГцЧастота кадров : 31,250 кадров/сек (1536 spf)Метод сжатия : С потерямиРазмер потока : 12,1 Мбайт (1%)Заголовок : Студийный (одноголосый закадровый) | "DVD-магия"Язык : RussianDefault : НетForced : Нет

Аудио #6Идентификатор : 7Формат : AC-3Формат/Информация : Audio Coding 3Расширение режима : CM (complete main)Параметр Endianness формата : BigИдентификатор кодека : A_AC3Продолжительность : 8 м. 49 с.Вид битрейта : ПостоянныйБитрейт : 192 Кбит/секКаналы : 2 каналаРасположение каналов : Front: L RЧастота : 48,0 КГцЧастота кадров : 31,250 кадров/сек (1536 spf)Метод сжатия : С потерямиРазмер потока : 12,1 Мбайт (1%)Заголовок : Авторский (одноголосый закадровый) | Сергей Визгунов (ранний)Язык : RussianDefault : НетForced : Нет

Аудио #7Идентификатор : 8Формат : AC-3Формат/Информация : Audio Coding 3Расширение режима : CM (complete main)Параметр Endianness формата : BigИдентификатор кодека : A_AC3Продолжительность : 8 м. 49 с.Вид битрейта : ПостоянныйБитрейт : 192 Кбит/секКаналы : 2 каналаРасположение каналов : Front: L RЧастота : 48,0 КГцЧастота кадров : 31,250 кадров/сек (1536 spf)Метод сжатия : С потерямиРазмер потока : 12,1 Мбайт (1%)Заголовок : Авторский (одноголосый закадровый) | Сергей Визгунов (поздний)Язык : RussianDefault : НетForced : Нет

Аудио #8Идентификатор : 9Формат : AC-3Формат/Информация : Audio Coding 3Расширение режима : CM (complete main)Параметр Endianness формата : BigИдентификатор кодека : A_AC3Продолжительность : 8 м. 49 с.Вид битрейта : ПостоянныйБитрейт : 320 Кбит/секКаналы : 2 каналаРасположение каналов : Front: L RЧастота : 48,0 КГцЧастота кадров : 31,250 кадров/сек (1536 spf)Метод сжатия : С потерямиРазмер потока : 20,2 Мбайт (1%)Заголовок : OriginalЯзык : EnglishDefault : НетForced : Нет

Текст #1Идентификатор : 10Формат : UTF-8Идентификатор кодека : S_TEXT/UTF8Идентификатор кодека/Информация : UTF-8 Plain TextПродолжительность : 8 м. 14 с.Битрейт : 8 бит/секCount of elements : 17Размер потока : 499 байт (0%)Заголовок : Русские | SRTЯзык : RussianDefault : НетForced : Нет

Текст #2Идентификатор : 11Формат : UTF-8Идентификатор кодека : S_TEXT/UTF8Идентификатор кодека/Информация : UTF-8 Plain TextПродолжительность : 7 м. 30 с.Битрейт : 9 бит/секCount of elements : 28Размер потока : 540 байт (0%)Заголовок : English | SRTЯзык : EnglishDefault : НетForced : Нет

Текст #3Идентификатор : 12Формат : UTF-8Идентификатор кодека : S_TEXT/UTF8Идентификатор кодека/Информация : UTF-8 Plain TextПродолжительность : 8 м. 12 с.Битрейт : 14 бит/секCount of elements : 52Размер потока : 918 байт (0%)Заголовок : English | SRT (for the hearing impaired)Язык : EnglishDefault : НетForced : Нет

Меню00:00:00.000 : :Chapter 0100:08:49.487 : :Chapter 02


Трекер:  [ 11-Янв-2017 18:00 ]

  

Скачать .torrent

Размер .torrent файла 14 KB


Размер: 1.35 GB
Хэш (hash) релиза: f0a8179a4d48eb6462779ed78f3f193f84ebf389
Подписка на обновления:

Торренты, похожие на Микки Маус: Сквозь зеркало Mickey Mouse: Thru The Mirror скачать торрент

Форум Название Автор Размер S L Добавлен
Мультфильмы до 2016 ·· Микки Маус: Сквозь Зеркало / Mickey Mouse: Thru The Mirror (Дэвид Хэнд / David Hand) [1936, США, Мультфильм, короткометражный, приключения, детский, BDRemux] Dub + DVO + VO + Rus Sub Galfimbul 14752022291.37 GB 0 0 1451315450

18:10

28-Дек-15

Мультфильмы до 2016 ·· Микки Маус: Сквозь зеркало / Микки Маус: В Зазеркалье / Mickey Mouse: Thru The Mirror (Дэвид Хэнд / David Hand) [1936, США, Мультфильм, короткометражный, приключения, детский, BDRemux] Dub + MVO + VO + Rus Sub Galfimbul 14456247921.35 GB 0 0 1474993569

19:26

27-Сен-16

Мультфильмы до 2016 ·· Микки Маус: Сквозь зеркало / Микки Маус: В Зазеркалье / Mickey Mouse: Thru The Mirror (Дэвид Хэнд / David Hand) [1936, США, Мультфильм, короткометражный, приключения, детский, BDRemux] Dub + MVO + VO + Rus Sub Galfimbul 14456169171.35 GB 0 0 1467388444

18:54

1-Июл-16

Мультфильмы до 2016 ·· Микки Маус: Сквозь зеркало / Микки Маус: В Зазеркалье / Mickey Mouse: Thru The Mirror (Дэвид Хэнд / David Hand) [1936, США, Мультфильм, короткометражный, приключения, детский, BDRemux] Dub + MVO + VO + Rus Sub Galfimbul 14456168111.35 GB 0 0 1467189149

11:32

29-Июн-16

Мультфильмы до 2016 ·· Микки Маус: Сквозь зеркало / Микки Маус: В Зазеркалье / Mickey Mouse: Thru The Mirror (Дэвид Хэнд / David Hand) [1936, США, Мультфильм, короткометражный, приключения, детский, BDRemux] Dub + MVO + VO + Rus Sub Galfimbul 14456752921.35 GB 0 0 1465576461

19:34

10-Июн-16

Еще никто не оставлял запись к записи скачать торрент Микки Маус: Сквозь зеркало Mickey Mouse: Thru The Mirror . Будь первым!

!Обратная связь