Скачать через торрент Микки Маус: Новогодняя Ёлка Плуто Mickey Mouse: Plutos Christmas Tree Фильм бесплатно в хорошем качестве torrent

Скачивайте на UnionPeer.org фильмы через торрент без регистрации. Новинки кино в хорошем качестве через торрент. На UnionPeer.org можно скачать через торрент фильмы 2014 и 2015 годов. Самые новые фильмы.

Скачать торрент Микки Маус: Новогодняя Ёлка Плуто Mickey Mouse: Plutos Christmas Tree бесплатно через .torrent фильм мультфильм сериал

Статистика раздачи
Размер:  1.88 GB   |    Зарегистрирован:  4 месяца 14 дней   |    .torrent скачан:  17 раз   |   
Раздают:  1  
   
 
Автор Сообщение

Galfimbul

avatar Galfimbul


<span class="post-font-serif2">Микки Маус: Новогодняя Ёлка Плуто / Mickey Mouse: Pluto's Christmas Tree</span>

<span class="post-font-serif2">Страна: США
Жанр: Мультфильм, короткометражный, семейный, комедия
Продолжительность: 00:06:47
Год выпуска: 1952
Перевод 1: Профессиональный (дублированный) - Студия "Невафильм"
Перевод 2: Профессиональный (многоголосый закадровый)
Перевод 3: Профессиональный (многоголосый закадровый)
Перевод 4: Авторский (одноголосый закадровый) - Юрий Живов
Русские субтитры: есть

Режиссёр: Джек Ханна / Jack Hannah
Роли озвучивали: Рут Клиффорд, Пинто Колвиг, Десси Флинн, Джеймс МакДональд, Кларенс Нэш

Описание: Микки и Плуто отправляются в лес за елкой и вместе с новогодним деревом приносят в дом и бурундучков Чипа и Дейла.

Качество: BDRemux 1080p
Формат: MKV
Видео: MPEG-4 AVC, 1920x1080, 23.976 fps, 38707 kbps
Аудио 1: AC3, 48 kHz, 2 ch, 192 kbps [Русский, Профессиональный (дублированный) | "Невафильм"]
Аудио 2: AC3, 48 kHz, 2 ch, 192 kbps [Русский, Профессиональный (многоголосый закадровый) | неизвестный | v. 1]
Аудио 3: AC3, 48 kHz, 2 ch, 192 kbps [Русский, Профессиональный (многоголосый закадровый) | неизвестный | v. 2]
Аудио 4: AC3, 48 kHz, 2 ch, 192 kbps [Русский, Авторский (одноголосый закадровый) | Юрий Живов]
Аудио 5: AC3, 48 kHz, 2 ch, 320 kbps [English, Original]
Субтитры: Русские, English, English (for the hearing impaired)</span>
ОбщееУникальный идентификатор : 204203185716667281580412706175078374666 (0x99A01A5EEF788379BC4460BE99581D0A)Полное имя : D:\Фильмы\Микки Маус - Новогодняя Ёлка Плуто (1952) BDRemux (1080p).mkvФормат : MatroskaВерсия формата : Version 4 / Version 2Размер файла : 1,88 ГбайтПродолжительность : 6 м. 47 с.Режим общего битрейта : ПеременныйОбщий поток : 39,7 Мбит/секНазвание фильма : Микки Маус: Новогодняя Ёлка Плуто / Mickey Mouse: Pluto's Christmas Tree / 1952 / ДБ, 2 x ПМ, АП (Живов), СТ / Blu-Ray Remux (1080p)Дата кодирования : UTC 2016-10-01 11:16:35Программа кодирования : mkvmerge v9.4.2 ('So High') 32bitБиблиотека кодирования : libebml v1.3.4 + libmatroska v1.4.5

ВидеоИдентификатор : 1Формат : AVCФормат/Информация : Advanced Video CodecПрофиль формата : High@L4.1Параметр CABAC формата : ДаПараметр ReFrames формата : 4 кадраИдентификатор кодека : V_MPEG4/ISO/AVCПродолжительность : 6 м. 46 с.Вид битрейта : ПеременныйБитрейт : 38,6 Мбит/секМаксимальный битрейт : 40,0 Мбит/секШирина : 1920 пикселейВысота : 1080 пикселейСоотношение сторон : 16:9Режим частоты кадров : ПостоянныйЧастота кадров : 23,976 (24000/1001) кадра/секЦветовое пространство : YUVСубдискретизация насыщенности : 4:2:0Битовая глубина : 8 битТип развёртки : ПрогрессивнаяБит/(Пиксели*Кадры) : 0.776Размер потока : 1,83 Гбайт (97%)Заголовок : MPEG-4 AVCЯзык : EnglishDefault : ДаForced : Нет

Аудио #1Идентификатор : 2Формат : AC-3Формат/Информация : Audio Coding 3Расширение режима : CM (complete main)Параметр Endianness формата : BigИдентификатор кодека : A_AC3Продолжительность : 6 м. 47 с.Вид битрейта : ПостоянныйБитрейт : 192 Кбит/секКаналы : 2 каналаРасположение каналов : Front: L RЧастота : 48,0 КГцЧастота кадров : 31,250 кадров/сек (1536 spf)Метод сжатия : С потерямиРазмер потока : 9,32 Мбайт (0%)Заголовок : Профессиональный (дублированный) | "Невафильм"Язык : RussianDefault : ДаForced : Нет

Аудио #2Идентификатор : 3Формат : AC-3Формат/Информация : Audio Coding 3Расширение режима : CM (complete main)Параметр Endianness формата : BigИдентификатор кодека : A_AC3Продолжительность : 6 м. 47 с.Вид битрейта : ПостоянныйБитрейт : 192 Кбит/секКаналы : 2 каналаРасположение каналов : Front: L RЧастота : 48,0 КГцЧастота кадров : 31,250 кадров/сек (1536 spf)Метод сжатия : С потерямиРазмер потока : 9,32 Мбайт (0%)Заголовок : Профессиональный (многоголосый закадровый) | неизвестный | v. 1Язык : RussianDefault : НетForced : Нет

Аудио #3Идентификатор : 4Формат : AC-3Формат/Информация : Audio Coding 3Расширение режима : CM (complete main)Параметр Endianness формата : BigИдентификатор кодека : A_AC3Продолжительность : 6 м. 47 с.Вид битрейта : ПостоянныйБитрейт : 192 Кбит/секКаналы : 2 каналаРасположение каналов : Front: L RЧастота : 48,0 КГцЧастота кадров : 31,250 кадров/сек (1536 spf)Метод сжатия : С потерямиРазмер потока : 9,32 Мбайт (0%)Заголовок : Профессиональный (многоголосый закадровый) | неизвестный | v. 2Язык : RussianDefault : НетForced : Нет

Аудио #4Идентификатор : 5Формат : AC-3Формат/Информация : Audio Coding 3Расширение режима : CM (complete main)Параметр Endianness формата : BigИдентификатор кодека : A_AC3Продолжительность : 6 м. 47 с.Вид битрейта : ПостоянныйБитрейт : 192 Кбит/секКаналы : 2 каналаРасположение каналов : Front: L RЧастота : 48,0 КГцЧастота кадров : 31,250 кадров/сек (1536 spf)Метод сжатия : С потерямиРазмер потока : 9,32 Мбайт (0%)Заголовок : Авторский (одноголосый закадровый) | Юрий ЖивовЯзык : RussianDefault : НетForced : Нет

Аудио #5Идентификатор : 6Формат : AC-3Формат/Информация : Audio Coding 3Расширение режима : CM (complete main)Параметр Endianness формата : BigИдентификатор кодека : A_AC3Продолжительность : 6 м. 46 с.Вид битрейта : ПостоянныйБитрейт : 320 Кбит/секКаналы : 2 каналаРасположение каналов : Front: L RЧастота : 48,0 КГцЧастота кадров : 31,250 кадров/сек (1536 spf)Метод сжатия : С потерямиРазмер потока : 15,5 Мбайт (1%)Заголовок : OriginalЯзык : EnglishDefault : НетForced : Нет

Текст #1Идентификатор : 7Формат : UTF-8Идентификатор кодека : S_TEXT/UTF8Идентификатор кодека/Информация : UTF-8 Plain TextПродолжительность : 5 м. 53 с.Битрейт : 30 бит/секCount of elements : 34Размер потока : 1,33 Кбайт (0%)Заголовок : Русские | SRTЯзык : RussianDefault : НетForced : Нет

Текст #2Идентификатор : 8Формат : UTF-8Идентификатор кодека : S_TEXT/UTF8Идентификатор кодека/Информация : UTF-8 Plain TextПродолжительность : 5 м. 49 с.Битрейт : 19 бит/секCount of elements : 35Размер потока : 842 байт (0%)Заголовок : English | SRTЯзык : EnglishDefault : НетForced : Нет

Текст #3Идентификатор : 9Формат : UTF-8Идентификатор кодека : S_TEXT/UTF8Идентификатор кодека/Информация : UTF-8 Plain TextПродолжительность : 6 м. 9 с.Битрейт : 29 бит/секCount of elements : 68Размер потока : 1,33 Кбайт (0%)Заголовок : English | SRT (for the hearing impaired)Язык : EnglishDefault : НетForced : Нет

Меню00:00:00.000 : :Chapter 01


Трекер:  [ 11-Янв-2017 18:00 ]

  

Скачать .torrent

Размер .torrent файла 19 KB


Размер: 1.88 GB
Хэш (hash) релиза: 8d2a17b67fad8e985276ff5002a573ad5563c29f
Подписка на обновления:

Еще никто не оставлял запись к записи скачать торрент Микки Маус: Новогодняя Ёлка Плуто Mickey Mouse: Plutos Christmas Tree . Будь первым!

!Обратная связь