Скачать через торрент Инферно Inferno бесплатно русская версия torrent активатор

Статистика раздачи
Размер:  1.43 GB   |    Зарегистрирован:  4 месяца 16 дней   |    .torrent скачан:  36 раз   |   
Раздают:  2  
   
 
Автор Сообщение

Galfimbul

avatar Galfimbul


<span class="post-font-serif1">Инферно / Inferno
«Every clue will take him deeper»

6.419 / 10 6.20 / 10
Год выпуска: 2016
Страна: США
Жанр: Боевик, триллер, драма, криминал, детектив, приключения
Продолжительность: 02:01:35

Перевод: Дублированный (iTunes)
Оригинальная аудиодорожка: Есть
Cубтитры: Русские форсированные, Английские форсированные, Украинские форсированные, Русские, Английские, Украинские
Режиссёр: Рон Ховард
Сценарий: Дэвид Кепп, Дэн Браун
Продюсер: Дэн Браун, Уильям М. Коннор, Анна Калп
Оператор: Сальваторе Тотино
Композитор: Ханс Циммер
Художник: Питер Венхам, Бенце Эрдейи, Жужа Кисмарти-Лехнер
Монтаж: Том Элкинс, Дэниэл П. Хэнли
В ролях: Том Хэнкс, Фелисити Джонс, Омар Си, Ирфан Кхан, Сидсе Бабетт Кнудсен, Бен Фостер, Ана Улару, Ида Дарвиш, Paolo Antonio Simioni, Alessandro Grimaldi

Бюджет: $75 000 000
Сборы в США: $34 307 024
Сборы в мире: + $185 650 596 = $219 957 620
Сборы в России: $9 128 816

Мировая премьера: 8 октября 2016
Премьера (РФ): 13 октября 2016, «WDSSPR»

Описание: Профессор Роберт Лэнгдон приходит в сознание в одной из итальянских больниц, полностью потеряв память. Местный врач Сиенна Брукс пытается помочь Роберту не только восстановить воспоминания, но и остановить загадочных злоумышленников, которые намерены распространить смертоносный вирус. Разгадка таинственной истории связана с «Адом» (ит. Inferno) — первой частью «Божественной комедии» Данте.
Качество исходника: BDRemux
Качество: BDRip
Тип: SD (480p)
Контейнер: M4V
Видео: H.264, 640x460 анаморф 852х460, 1.85:1, 1 300 Kbps, 23.976 (24000/1001) fps

Аудио 1: Русский/Дублированный (iTunes), AAC / 2.0 / 128 Kbps / 48.0 KHz
Аудио 2: Английский/Оригинальная дорожка , AAC / 2.0 / 128 Kbps / 48.0 KHz
Аудио 3: Украинский/Дублированный (iTunes), AAC / 2.0 / 128 Kbps / 48.0 KHz

Субтитры 1: Русские форсированные
Субтитры 2: Английские форсированные
Субтитры 3: Украинские форсированные
Субтитры 4: Русские полные
Субтитры 5: Английские полные
Субтитры 6: Украинские полные



</span>
Sort Name: Inferno
XID: Apple:vendor_id:2016-780470
contentID: 1159466783
Screenwriters: Дэвид Кепп, Дэн Браун
Producers: Дэн Браун, Уильям М. Коннор, Анна Калп
Director: Рон Ховард
Cast: Том Хэнкс, Фелисити Джонс, Омар Си, Ирфан Кхан, Сидсе Бабетт Кнудсен, Бен Фостер, Ана Улару, Ида Дарвиш, Paolo Antonio Simioni, Alessandro Grimaldi
Studio: Columbia Pictures
Rating Annotation: Rated PG-13 for sequences of action and violence, disturbing images, some language, thematic elements and brief sensuality.
Rating: 4
Long Description: Профессор Роберт Лэнгдон приходит в сознание в одной из итальянских больниц, полностью потеряв память. Местный врач Сиенна Брукс пытается помочь Роберту не только восстановить воспоминания, но и остановить загадочных злоумышленников, которые намерены распространить смертоносный вирус. Разгадка таинственной истории связана с "Адом" (ит. Inferno) - первой частью "Божественной комедии" Данте.
Description: Оказавшись в самом загадочном городе Италии - Флоренции, профессор Лэнгдон, специалист по кодам, символам и истории искусства, неожиданно попадает в водоворот событий, которые способны привести к гибели всего человечества. И помешать этому может только разгадка тайны, некогда зашифрованной Данте в строках бессмертной эпической поэмы.
Release Date: 2016-10-08T08:00:00Z
Genre: Thriller
Artist: Ron Howard
Name: Inferno
General
Complete name : /Users/imac/HandBrake/Inferno.(480p).(pk).m4v
Format : MPEG-4
Codec ID : M4V
File size : 1.43 GiB
Duration : 2h 1mn
Overall bit rate mode : Variable
Overall bit rate : 1 688 Kbps
Movie name : Inferno
Performer : Ron Howard
Director : Рон Ховард
Actor : Том Хэнкс / Фелисити Джонс / Омар Си / Ирфан Кхан / Сидсе Бабетт Кнудсен / Бен Фостер / Ана Улару / Ида Дарвиш / Paolo Antonio Simioni / Alessandro Grimaldi
Screenplay by : Дэвид Кепп / Дэн Браун
Producer : Дэн Браун / Уильям М. Коннор / Анна Калп
Production studio : Columbia Pictures
Genre : Thriller
ContentType : Short Film
Description : Оказавшись в самом загадочном городе Италии - Флоренции, профессор Лэнгдон, специалист по кодам, символам и истории искусства, неожиданно попадает в водоворот событий, которые способны привести к гибели всего человечества. И помешать этому может только разгадка тайны, некогда зашифрованной Данте в строках бессмертной эпической поэмы.
Recorded date : UTC 2016-10-08 08:00:00
Encoded date : UTC 2017-01-11 10:01:35
Tagged date : UTC 2017-01-11 10:04:12
Cover : Yes
Rating : None
Title/Sort : Inferno
LongDescription : Профессор Роберт Лэнгдон приходит в сознание в одной из итальянских больниц, полностью потеряв память. Местный врач Сиенна Брукс пытается помочь Роберту не только восстановить воспоминания, но и остановить загадочных злоумышленников, которые намерены распространить смертоносный вирус. Разгадка таинственной истории связана с "Адом" (ит. Inferno) - первой частью "Божественной комедии" Данте.
AppleStoreCatalogID : 1159466783
Vendor : Apple:vendor_id:2016-780470
ContentRating : mpaa|PG-13|300|Rated PG-13 for sequences of action and violence, disturbing images, some language, thematic elements and brief sensuality.

Video #1
ID : 1
Format : AVC
Format/Info : Advanced Video Codec
Format profile : Baseline@L3
Format settings, CABAC : No
Format settings, ReFrames : 2 frames
Codec ID : avc1
Codec ID/Info : Advanced Video Coding
Duration : 2h 1mn
Bit rate : 1 300 Kbps
Width : 640 pixels
Height : 460 pixels
Display aspect ratio : 1.85:1
Frame rate mode : Variable
Frame rate : 23.976 fps
Minimum frame rate : 11.995 fps
Maximum frame rate : 23.981 fps
Color space : YUV
Chroma subsampling : 4:2:0
Bit depth : 8 bits
Scan type : Progressive
Bits/(Pixel*Frame) : 0.184
Stream size : 1.10 GiB (77%)
Title : Main Program
Writing library : x264 core 148 r2708 86b7198
Encoding settings : cabac=0 / ref=2 / deblock=1:0:0 / analyse=0x1:0x111 / me=umh / subme=6 / psy=1 / psy_rd=1.00:0.00 / mixed_ref=1 / me_range=16 / chroma_me=1 / trellis=0 / 8x8dct=0 / cqm=0 / deadzone=21,11 / fast_pskip=1 / chroma_qp_offset=-2 / threads=14 / lookahead_threads=2 / sliced_threads=0 / nr=0 / decimate=1 / interlaced=0 / bluray_compat=0 / constrained_intra=0 / bframes=0 / weightp=0 / keyint=240 / keyint_min=24 / scenecut=40 / intra_refresh=0 / rc_lookahead=40 / rc=2pass / mbtree=1 / bitrate=1300 / ratetol=1.0 / qcomp=0.60 / qpmin=0 / qpmax=69 / qpstep=4 / cplxblur=20.0 / qblur=0.5 / vbv_maxrate=5000 / vbv_bufsize=5000 / nal_hrd=none / filler=0 / ip_ratio=1.40 / aq=1:1.00
Language : English
Encoded date : UTC 2017-01-11 10:01:35
Tagged date : UTC 2017-01-11 10:01:40
Color range : Limited
Color primaries : BT.709
Transfer characteristics : BT.709
Matrix coefficients : BT.709

Video #2
ID : 12
Format : JPEG
Codec ID : jpeg
Duration : 2h 1mn
Bit rate mode : Variable
Bit rate : 710 bps
Width : 640 pixels
Height : 345 pixels
Display aspect ratio : 1.85:1
Frame rate mode : Variable
Frame rate : 0.002 fps
Minimum frame rate : 0.001 fps
Maximum frame rate : 0.007 fps
Color space : YUV
Chroma subsampling : 4:2:0
Bit depth : 8 bits
Compression mode : Lossy
Bits/(Pixel*Frame) : 1.608
Stream size : 693 KiB (0%)
Title : Chapter Images
Language : English
Encoded date : UTC 2017-01-11 10:01:46
Tagged date : UTC 2017-01-11 10:01:47

Audio #1
ID : 2
Format : AAC
Format/Info : Advanced Audio Codec
Format profile : LC
Codec ID : 40
Duration : 2h 1mn
Bit rate mode : Variable
Bit rate : 126 Kbps
Maximum bit rate : 221 Kbps
Channel(s) : 2 channels
Channel positions : Front: L R
Sampling rate : 48.0 KHz
Compression mode : Lossy
Stream size : 110 MiB (7%)
Title : Russian Stereo
Language : Russian
Encoded date : UTC 2017-01-11 10:01:35
Tagged date : UTC 2017-01-11 10:01:44

Audio #2
ID : 3
Format : AAC
Format/Info : Advanced Audio Codec
Format profile : LC
Codec ID : 40
Duration : 2h 1mn
Bit rate mode : Variable
Bit rate : 127 Kbps
Maximum bit rate : 186 Kbps
Channel(s) : 2 channels
Channel positions : Front: L R
Sampling rate : 48.0 KHz
Compression mode : Lossy
Stream size : 110 MiB (8%)
Title : English Stereo
Language : English
Encoded date : UTC 2017-01-11 10:01:35
Tagged date : UTC 2017-01-11 10:01:44

Audio #3
ID : 4
Format : AAC
Format/Info : Advanced Audio Codec
Format profile : LC
Codec ID : 40
Duration : 2h 1mn
Bit rate mode : Variable
Bit rate : 126 Kbps
Maximum bit rate : 169 Kbps
Channel(s) : 2 channels
Channel positions : Front: L R
Sampling rate : 48.0 KHz
Compression mode : Lossy
Stream size : 109 MiB (7%)
Title : Ukrainian Stereo
Language : Ukrainian
Encoded date : UTC 2017-01-11 10:01:35
Tagged date : UTC 2017-01-11 10:01:44

Text #1
ID : 5
Format : Timed Text
Muxing mode : sbtl
Codec ID : tx3g
Duration : 1h 47mn
Bit rate mode : Variable
Bit rate : 3 bps
Stream size : 2.71 KiB (0%)
Title : Russian forced
Language : Russian
Encoded date : UTC 2017-01-11 10:01:35
Tagged date : UTC 2017-01-11 10:01:42

Text #2
ID : 6
Format : Timed Text
Muxing mode : sbtl
Codec ID : tx3g
Duration : 1h 8mn
Bit rate mode : Variable
Bit rate : 2 bps
Stream size : 1.09 KiB (0%)
Title : English forced
Language : English
Encoded date : UTC 2017-01-11 10:01:35
Tagged date : UTC 2017-01-11 10:01:41

Text #3
ID : 7
Format : Timed Text
Muxing mode : sbtl
Codec ID : tx3g
Duration : 1h 47mn
Bit rate mode : Variable
Bit rate : 3 bps
Stream size : 2.67 KiB (0%)
Title : Ukrainian forced
Language : Ukrainian
Encoded date : UTC 2017-01-11 10:01:35
Tagged date : UTC 2017-01-11 10:01:42

Text #4
ID : 8
Format : Timed Text
Muxing mode : sbtl
Codec ID : tx3g
Duration : 1h 56mn
Bit rate mode : Variable
Bit rate : 98 bps
Stream size : 83.3 KiB (0%)
Title : Russian full
Language : Russian
Encoded date : UTC 2017-01-11 10:01:35
Tagged date : UTC 2017-01-11 10:01:43

Text #5
ID : 9
Format : Timed Text
Muxing mode : sbtl
Codec ID : tx3g
Duration : 1h 56mn
Bit rate mode : Variable
Bit rate : 63 bps
Stream size : 53.4 KiB (0%)
Title : English full
Language : English
Encoded date : UTC 2017-01-11 10:01:35
Tagged date : UTC 2017-01-11 10:01:43

Text #6
ID : 10
Format : Timed Text
Muxing mode : sbtl
Codec ID : tx3g
Duration : 1h 56mn
Bit rate mode : Variable
Bit rate : 96 bps
Stream size : 81.8 KiB (0%)
Title : Ukrainian full
Language : Ukrainian
Encoded date : UTC 2017-01-11 10:01:35
Tagged date : UTC 2017-01-11 10:01:43

Menu #1
00:00:00.000 : Chapter 1
00:04:12.794 : Chapter 2
00:12:32.502 : Chapter 3
00:23:42.588 : Chapter 4
00:36:02.369 : Chapter 5
00:51:11.277 : Chapter 6
00:59:16.553 : Chapter 7
01:01:42.616 : Chapter 8
01:07:42.308 : Chapter 9
01:13:24.692 : Chapter 10
01:20:01.422 : Chapter 11
01:24:36.613 : Chapter 12
01:31:24.896 : Chapter 13
01:35:41.861 : Chapter 14
01:40:50.836 : Chapter 15
01:52:27.574 : Chapter 16

Menu #2
ID : 11
Codec ID : text
Duration : 2h 1mn
Language : English
Encoded date : UTC 2017-01-11 10:01:44
Tagged date : UTC 2017-01-11 10:01:44
00:00:00.000 : Chapter 1
00:04:12.794 : Chapter 2
00:12:32.502 : Chapter 3
00:23:42.588 : Chapter 4
00:36:02.369 : Chapter 5
00:51:11.277 : Chapter 6
00:59:16.553 : Chapter 7
01:01:42.616 : Chapter 8
01:07:42.308 : Chapter 9
01:13:24.692 : Chapter 10
01:20:01.422 : Chapter 11
01:24:36.613 : Chapter 12
01:31:24.896 : Chapter 13
01:35:41.861 : Chapter 14
01:40:50.836 : Chapter 15
01:52:27.574 : Chapter 16
Bit rate mode : VBR
x264 [info]: frame I:6521  Avg QP:19.07  size: 19996
x264 [info]: frame P:168390 Avg QP:21.31  size:  6265
x264 [info]: mb I  I16..4: 38.8%  0.0% 61.2%
x264 [info]: mb P  I16..4:  1.9%  0.0%  3.3%  P16..4: 44.9% 17.0%  6.7%  0.0%  0.0%    skip:26.2%
x264 [info]: coded y,uvDC,uvAC intra: 58.5% 67.7% 35.1% inter: 19.5% 19.0% 2.5%
x264 [info]: i16 v,h,dc,p: 42% 16%  8% 34%
x264 [info]: i4 v,h,dc,ddl,ddr,vr,hd,vl,hu: 29% 15% 16%  7%  8%  9%  6%  7%  4%
x264 [info]: i8c dc,h,v,p: 50% 15% 26%  9%
x264 [info]: ref P L0: 74.3% 25.7%
x264 [info]: kb/s:1299.87

<span class="post-font-serif1">
Релиз подготовлен для просмотра на Apple TV, iPad, iPhone, <a href="www.apple.com/ipodtouch/" class="postLink">iPod Touch</a>.
Для просмотра данного релиза на компьютере с ОС Windows рекомендуется использовать VLC media player</span>

Трекер:  [ 11-Янв-2017 12:30 ]

  

Скачать .torrent

Размер .torrent файла 29 KB


Размер: 1.43 GB
Хэш (hash) релиза: 063eeb52502de441babb0b6d41b6974931591531

Торренты, похожие на Инферно Inferno скачать торрент

Форум Название Автор Размер S L Добавлен
Видео (iPhone/iPod Touch/iPad) ·· [iPad] Инферно / Inferno (Рон Ховард / Ron Howard ) [2016, США, Боевик, триллер, драма, криминал, детектив, приключения, BDRip, SD (576p)] DUB + Original + sub (rus, eng, ukr) Galfimbul 23608253192.2 GB 2 0 1484128845

13:00

11-Янв-17

Видео (iPhone/iPod Touch/iPad) ·· Инферно / Inferno (Рон Ховард / Ron Howard ) [2016, США, Боевик, триллер, драма, криминал, детектив, приключения, BDRip, HD (720p)] DUB + Original + sub (rus, eng, ukr) Galfimbul 45618074204.25 GB 2 0 1484088610

01:50

11-Янв-17

Видео (iPhone/iPod Touch/iPad) ·· [ATV3] Инферно / Inferno (Рон Ховард / Ron Howard ) [2016, США, Боевик, триллер, драма, криминал, детектив, приключения, BDRip, HD (1080p)] DUB + Original + sub (rus, eng, ukr) Galfimbul 86705882508.08 GB 0 0 1484046348

14:05

10-Янв-17

Видео (iPhone/iPod Touch/iPad) ·· [ATV3] Инферно / Inferno (Рон Ховард / Ron Howard ) [2016, США, Боевик, триллер, драма, криминал, детектив, приключения, WEB-DL, HD (1080p)] DUB + Original + sub (rus, eng, ukr) Galfimbul 58458658465.44 GB 0 0 1483578617

04:10

5-Янв-17

Видео (iPhone/iPod Touch/iPad) ·· Инферно / Inferno (Рон Ховард / Ron Howard ) [2016, США, Боевик, триллер, драма, криминал, детектив, приключения, WEB-DL, HD (720p)] DUB + Original + sub (rus, eng, ukr) Galfimbul 48340295894.5 GB 0 0 1483578608

04:10

5-Янв-17

Еще никто не оставлял запись к записи скачать торрент Инферно Inferno . Будь первым!

!Обратная связь