Скачать через торрент Мой маленький пони. Дружба - это чудо My Little Pony: Friendship Is Magic Фильм бесплатно в хорошем качестве torrent

Скачивайте на UnionPeer.org фильмы через торрент без регистрации. Новинки кино в хорошем качестве через торрент. На UnionPeer.org можно скачать через торрент фильмы 2014 и 2015 годов. Самые новые фильмы.

Скачать торрент Мой маленький пони. Дружба - это чудо My Little Pony: Friendship Is Magic бесплатно через .torrent фильм мультфильм сериал

Статистика раздачи
Размер:  10.09 GB   |    Зарегистрирован:  4 месяца 16 дней   |    .torrent скачан:  25 раз   |   
Раздают:  1  
   
 
Автор Сообщение

Galfimbul

avatar Galfimbul


Мой маленький пони. Дружба - это чудо / My Little Pony: Friendship Is Magic
Страна: США, Канада
Жанр: комедия, семейный, фэнтези
Сезон: 6
Серии: 1-13,19 (из 26)
Продолжительность: 00:22:04
Год выпуска: 2016
Перевод: Профессиональный (дублированный) (телеканал Карусель) (СВ-Дубль по заказу ВГТРК)
Русские субтитры: есть

Режиссёр: Джейсон Тиссен / Jayson Thiessen, Джеймс Вуттон / James Wootton
Роли озвучивали: Тара Стронг, Эшли Болл, Клэр Корлетт, Мишель Кребер, Андреа Либман и другие

Описание: В чудесной стране Эквестрии, в городе Понивилль, живут симпатичные пони. Каждая из них обладает удивительными способностями: умеет летать и управлять погодой, двигать предметы силой мысли, понимать язык животных и птиц или ходить по облакам. Главная героиня мультсериала Искорка - любимая ученица принцессы Селестии. Прибыв в Понивилль, она знакомится с отважной Радугой, элегантной Рарити, трудолюбивой Эпплджек, стеснительной Флаттершай и веселой Пинки Пай. Каждый день Искорка вместе с новыми друзьями решает проблемы жителей города Понивилля. Увлекательные приключения становятся для друзей настоящим уроком добра и взаимопонимания.

<a href="tracker.php?f=921&nm=Friendship+is+Magic" class="postLink">Предыдущие и альтернативные раздачи</a>
Рейтинг:

Качество: WEB-DL 720p <a href="viewtopic.php?t=5197855" class="postLink">(Источник)</a>
Формат: MKV
Видео: AVC, 1280x720, 23.976 fps, 3858 kbps
Аудио Rus: AC3, 48 kHz, 2 ch, 192 kbps
Аудио Eng: AC3, 48 kHz, 6 ch, 384 kbps
Субтитры: английские и русские (anon2anon)
01. Кристаллинг. Часть 1 (The Crystalling - Part 1)02. Кристаллинг. Часть 2 (The Crystalling - Part 2)03. Подарок для Мод Пай (The Gift of Maud Pie)04. Знаки отличия (On Your Marks)05. Испытания огнем (Gauntlet of Fire)06. Никаких вторых шансов (No Second Prances)07. Новобранец Дэш (Newbie Dash)08. Сказка согревающего очага (A Hearth's Warming Tail)09. Новости Седельного ряда (The Saddle Row Review)10. Выходной Эпплджек (Applejack's Day Off)11. Братишка Флаттершай (Flutter Brutter)12. Добавь специй в свою жизнь (Spice Up Your Life)13. Страннее фанатских историй (Stranger Than Fan Fiction)19. Виноваты знаки отличия (The Fault in Our Cutie Marks)
Мультсериал от Hasbro про пони был задуман для детей младшего возраста. Однако по мере выхода сериал оказался популярным и у более взрослой аудитории. В этой раздаче представлена профессиональная озвучка телеканала Карусель в дубляже, оригинальная аудиодорожка, а также русские и английские субтитры команды anon2anon. Запись телезвука к сериям оперативно и любезно предоставлена <a href="viewtopic.php?t=5197317" class="postLink">ALEKS KV</a>, за что ему огромное спасибо. Сериал рекомендован для семейного просмотра. Нумерация серий в этой раздаче точно соответствует нумерации в Википедии, IMDb и в раздаче-источнике субтитров.
ОбщееУникальный идентификатор : 189997112272854934065113608614781297649 (0x8EF01CDFA18E843E91DDF6A2399AA3F1)Полное имя : D:\Video\Mults\MLP FIM 6 720p Dub\mlp.fim.s06e01.web-dl.rus.eng.karusel.mkvФормат : MatroskaВерсия формата : Version 4 / Version 2Размер файла : 701 МбайтПродолжительность : 22 м. 4 с.Общий поток : 4436 Кбит/секДата кодирования : UTC 2017-01-05 15:11:25Программа кодирования : mkvmerge v9.1.0 ('Little Earthquakes') 32bitБиблиотека кодирования : libebml v1.3.3 + libmatroska v1.4.4

ВидеоИдентификатор : 1Формат : AVCФормат/Информация : Advanced Video CodecПрофиль формата : High@L3.1Параметр CABAC формата : НетПараметр ReFrames формата : 2 кадраИдентификатор кодека : V_MPEG4/ISO/AVCПродолжительность : 22 м. 4 с.Битрейт : 3858 Кбит/секШирина : 1280 пикселейВысота : 720 пикселейСоотношение сторон : 16:9Режим частоты кадров : ПостоянныйЧастота кадров : 23,976 (24000/1001) кадра/секЦветовое пространство : YUVСубдискретизация насыщенности : 4:2:0Битовая глубина : 8 битТип развёртки : ПрогрессивнаяБит/(Пиксели*Кадры) : 0.175Размер потока : 609 Мбайт (87%)Язык : EnglishDefault : НетForced : НетЦветовой диапазон : LimitedОсновные цвета : BT.709Характеристики трансфера : BT.709Коэффициенты матрицы : BT.709

Аудио #1Идентификатор : 2Формат : AC-3Формат/Информация : Audio Coding 3Расширение режима : CM (complete main)Параметр Endianness формата : BigИдентификатор кодека : A_AC3Продолжительность : 22 м. 4 с.Вид битрейта : ПостоянныйБитрейт : 192 Кбит/секКаналы : 2 каналаРасположение каналов : Front: L RЧастота : 48,0 КГцЧастота кадров : 31,250 кадров/сек (1536 spf)Метод сжатия : С потерямиРазмер потока : 30,3 Мбайт (4%)Язык : RussianDefault : ДаForced : Нет

Аудио #2Идентификатор : 3Формат : AC-3Формат/Информация : Audio Coding 3Расширение режима : CM (complete main)Параметр Endianness формата : BigИдентификатор кодека : A_AC3Продолжительность : 22 м. 4 с.Вид битрейта : ПостоянныйБитрейт : 384 Кбит/секКаналы : 6 каналовРасположение каналов : Front: L C R, Side: L R, LFEЧастота : 48,0 КГцЧастота кадров : 31,250 кадров/сек (1536 spf)Метод сжатия : С потерямиРазмер потока : 60,7 Мбайт (9%)Язык : EnglishDefault : НетForced : Нет


Трекер:  [ 11-Янв-2017 12:30 ]

  

Скачать .torrent

Размер .torrent файла 54 KB


Размер: 10.09 GB
Хэш (hash) релиза: 0373143fe2752f0251d26a3f04245c0910b45f67
Подписка на обновления:

Торренты, похожие на Мой маленький пони. Дружба - это чудо My Little Pony: Friendship Is Magic скачать торрент

Форум Название Автор Размер S L Добавлен
Мультсериалы ·· Мой маленький пони. Дружба - это чудо / My Little Pony: Friendship Is Magic / Сезон: 6 / Серии: 1-13,19 (26) (Джейсон Тиссен / Jayson Thiessen, Джеймс Вуттон / James Wootton) [2016, комедия, семейный, фэнтези, WEB-DLRip] Dub (Карусель) Galfimbul 39363502083.67 GB 0 0 1484125520

12:05

11-Янв-17

Еще никто не оставлял запись к записи скачать торрент Мой маленький пони. Дружба - это чудо My Little Pony: Friendship Is Magic . Будь первым!

!Обратная связь