Скачать через торрент Принц Египта The Prince of Egypt Фильм бесплатно в хорошем качестве torrent

Скачивайте на UnionPeer.org фильмы через торрент без регистрации. Новинки кино в хорошем качестве через торрент. На UnionPeer.org можно скачать через торрент фильмы 2014 и 2015 годов. Самые новые фильмы.

Скачать торрент Принц Египта The Prince of Egypt бесплатно через .torrent фильм мультфильм сериал

Статистика раздачи
Размер:  1.9 GB   |    Зарегистрирован:  4 месяца 16 дней   |    .torrent скачан:  30 раз   |   
Раздают:  1  
   
 
Автор Сообщение

Galfimbul

avatar Galfimbul


Принц ЕгиптаPrince of Egypt«Two brothers united by friendship divided by destiny»

Страна: США
Жанр: мультфильм, мюзикл, драма, приключения, семейный
Продолжительность: 01:38:42
Год выпуска: 1998
Перевод:
- Профессиональный (дублированный) - Пифагор
Русские субтитры : есть
Режиссёр: Бренда Чепмен / Brenda Chapman, Стив Хикнер / Steve Hickner, Саймон Уэллс / Simon Wells
Роли озвучивали: Вэл Килмер, Рэйф Файнс, Мишель Пфайффер, Сандра Буллок, Джефф Голдблюм, Дэнни Гловер, Патрик Стюарт, Хелен Миррен, Стив Мартин, Мартин Шорт, Офра Хаза
Описание: Эта история случилась на заре цивилизации в Древнем Египте. Стремительный и величавый Нил вынес на берег перед дворцом фараона корзину с младенцем. Могущественный правитель усыновил крошечного мальчика и дал ему имя Моисей.

Шли годы… Моисей и его брат Рамзес росли вместе. Но придет день, когда один из братьев станет владыкой величайшей империи на земле, а другой — святым… Противоборство героев навсегда изменит их судьбы и историю человечества.

Огромная благодарность <a href="profile.php?mode=viewprofile&u=10369728" class="postLink">Mr-Maximus</a> за запись Пифагор-овского дубляжа с казахстанского канала НТК.
Семпл: http://sendfile.su/1297844
Качество: WEB-DLRip
Формат: AVI
Видео: 720x400, 23,976 fps, ~1911 kbps avg, 0.28 bit/pixel
Аудио #1: [RUS] 48 kHz, AC3 Dolby Digital, 2 ch [dualmono], ~192 kbps kbps avg - DUB (Пифагор)
Аудио #2: [UKR] 48 kHz, AC3 Dolby Digital, 2/0 (L,R) ch, ~192 kbps kbps avg - MVO (K1) (отдельно)
Аудио #3: [ENG] 48 kHz, AC3 Dolby Digital, 3/2 (L,C,R,l,r) + LFE ch, ~448 kbps avg (отдельно)
Субтитры: Русские, английские
ОбщееПолное имя : C:\Users\123\Desktop\Принц Египта\Prince of Egypt.aviФормат : AVIФормат/Информация : Audio Video InterleaveПрофиль формата : OpenDMLНастройки формата : recРазмер файла : 1,45 ГбайтПродолжительность : 1 ч. 38 м.Общий поток : 2109 Кбит/секПрограмма кодирования : AVI-Mux GUI 1.17.8.3, Feb 16 201019:42:50

ВидеоИдентификатор : 0Формат : MPEG-4 VisualПрофиль формата : Advanced Simple@L5Параметр BVOP формата : 2Параметр QPel формата : НетПараметр GMC формата : Без точки переходаПараметр матрицы формата : ВыборочнаяИдентификатор кодека : XVIDИдентификатор кодека/Подсказка : XviDПродолжительность : 1 ч. 38 м.Битрейт : 1912 Кбит/секШирина : 720 пикселейВысота : 400 пикселейСоотношение сторон : 16:9Частота кадров : 23,976 (24000/1001) кадра/секЦветовое пространство : YUVСубдискретизация насыщенности : 4:2:0Битовая глубина : 8 битТип развёртки : ПрогрессивнаяМетод сжатия : С потерямиБит/(Пиксели*Кадры) : 0.277Размер потока : 1,32 Гбайт (91%)Библиотека кодирования : XviD 65

АудиоИдентификатор : 1Формат : AC-3Формат/Информация : Audio Coding 3Расширение режима : CM (complete main)Параметр Endianness формата : BigИдентификатор кодека : 2000Продолжительность : 1 ч. 38 м.Вид битрейта : ПостоянныйБитрейт : 192 Кбит/секКаналы : 2 каналаChannel(s)_Original : 1 каналРасположение каналов : Front: CЧастота : 48,0 КГцЧастота кадров : 31,250 кадров/сек (1536 spf)Битовая глубина : 16 битМетод сжатия : С потерямиРазмер потока : 136 Мбайт (9%)Выравнивание : Соединение по промежуткамПродолжительность промежутка : 64 мс. (1,53 видеокадра)Время предзагрузки промежутка : 192 мс.Заголовок : csfcdzvad


Трекер:  [ 11-Янв-2017 11:30 ]

  

Скачать .torrent

Размер .torrent файла 19 KB


Размер: 1.9 GB
Хэш (hash) релиза: 072319da98cd59cd081447b11e743307a5552dab
Подписка на обновления:

Еще никто не оставлял запись к записи скачать торрент Принц Египта The Prince of Egypt . Будь первым!

!Обратная связь