Скачать через торрент Мой маленький пони. Дружба - это чудо My Little Pony: Friendship Is Magic Фильм бесплатно в хорошем качестве torrent

Скачивайте на UnionPeer.org фильмы через торрент без регистрации. Новинки кино в хорошем качестве через торрент. На UnionPeer.org можно скачать через торрент фильмы 2014 и 2015 годов. Самые новые фильмы.

Скачать торрент Мой маленький пони. Дружба - это чудо My Little Pony: Friendship Is Magic бесплатно через .torrent фильм мультфильм сериал

Статистика раздачи
Размер:  3.67 GB   |    Зарегистрирован:  1 месяц 12 дней   |    .torrent скачан:  18 раз   |   
Раздают:  1  
   
 
Автор Сообщение

Galfimbul

avatar Galfimbul


Мой маленький пони. Дружба - это чудо / My Little Pony: Friendship Is Magic
Страна: США, Канада
Жанр: комедия, семейный, фэнтези
Сезон: 6
Серии: 1-13,19 (из 26)
Продолжительность: 00:22:05
Год выпуска: 2016
Перевод: Профессиональный (дублированный) (телеканал Карусель) (СВ-Дубль по заказу ВГТРК)
Русские субтитры: нет

Режиссёр: Джейсон Тиссен / Jayson Thiessen, Джеймс Вуттон / James Wootton
Роли озвучивали: Тара Стронг, Эшли Болл, Клэр Корлетт, Мишель Кребер, Андреа Либман и другие

Описание: В чудесной стране Эквестрии, в городе Понивилль, живут симпатичные пони. Каждая из них обладает удивительными способностями: умеет летать и управлять погодой, двигать предметы силой мысли, понимать язык животных и птиц или ходить по облакам. Главная героиня мультсериала Искорка - любимая ученица принцессы Селестии. Прибыв в Понивилль, она знакомится с отважной Радугой, элегантной Рарити, трудолюбивой Эпплджек, стеснительной Флаттершай и веселой Пинки Пай. Каждый день Искорка вместе с новыми друзьями решает проблемы жителей города Понивилля. Увлекательные приключения становятся для друзей настоящим уроком добра и взаимопонимания.

<a href="tracker.php?f=921&nm=Friendship+is+Magic" class="postLink">Предыдущие и альтернативные раздачи</a>
Рейтинг:

Качество: WEB-DLRip <a href="viewtopic.php?t=5197317" class="postLink">(Исходник)</a>
Формат: AVI
Видео: XviD, 720x400, 23.976 fps, 1299 kbps
Аудио Rus: AC3, 48 kHz, 2 ch, 192 kbps
Аудио Eng: AC3, 48 kHz, 2 ch, 192 kbps
01. Кристаллинг. Часть 1 (The Crystalling - Part 1)02. Кристаллинг. Часть 2 (The Crystalling - Part 2)03. Подарок для Мод Пай (The Gift of Maud Pie)04. Знаки отличия (On Your Marks)05. Испытания огнем (Gauntlet of Fire)06. Никаких вторых шансов (No Second Prances)07. Новобранец Дэш (Newbie Dash)08. Сказка согревающего очага (A Hearth's Warming Tail)09. Новости Седельного ряда (The Saddle Row Review)10. Выходной Эпплджек (Applejack's Day Off)11. Братишка Флаттершай (Flutter Brutter)12. Добавь специй в свою жизнь (Spice Up Your Life)13. Страннее фанатских историй (Stranger Than Fan Fiction)19. Виноваты знаки отличия (The Fault in Our Cutie Marks)
Мультсериал от Hasbro про пони был задуман для детей младшего возраста. Однако по мере выхода сериал оказался популярным и у более взрослой аудитории. В этой раздаче представлена профессиональная озвучка телеканала Карусель в дубляже и оригинальная аудиодорожка. Запись телезвука к сериям оперативно и любезно предоставлена <a href="viewtopic.php?t=5197317" class="postLink">ALEKS KV</a>, за что ему огромное спасибо. Данный рип подходит для просмотра на бытовых DVD-плеерах с поддержкой XviD. Сериал рекомендован для семейного просмотра. Подходящие русские и английские субтитры можно найти в соседней совместимой <a href="viewtopic.php?t=5197855" class="postLink">раздаче</a>. Нумерация серий в этой раздаче точно соответствует нумерации в Википедии, IMDb и в раздаче-источнике субтитров.
ОбщееПолное имя : D:\Video\Mults\MLP FIM 6 Karusel\mlp.fim.s06e01.web-dlrip.rus.eng.karusel.aviФормат : AVIФормат/Информация : Audio Video InterleaveРазмер файла : 268 МбайтПродолжительность : 22 м. 5 с.Общий поток : 1697 Кбит/секПрограмма кодирования : VirtualDubMod 1.5.10.2 (build 2540/release)Библиотека кодирования : VirtualDubMod build 2540/release

ВидеоИдентификатор : 0Формат : MPEG-4 VisualПрофиль формата : Advanced Simple@L5Параметр BVOP формата : 1Параметр QPel формата : НетПараметр GMC формата : Без точки переходаПараметр матрицы формата : ВыборочнаяИдентификатор кодека : XVIDИдентификатор кодека/Подсказка : XviDПродолжительность : 22 м. 5 с.Битрейт : 1299 Кбит/секШирина : 720 пикселейВысота : 400 пикселейСоотношение сторон : 16:9Частота кадров : 23,976 (23976/1000) кадра/секЦветовое пространство : YUVСубдискретизация насыщенности : 4:2:0Битовая глубина : 8 битТип развёртки : ПрогрессивнаяМетод сжатия : С потерямиБит/(Пиксели*Кадры) : 0.188Размер потока : 205 Мбайт (77%)Библиотека кодирования : XviD 64

Аудио #1Идентификатор : 1Формат : AC-3Формат/Информация : Audio Coding 3Расширение режима : CM (complete main)Параметр Endianness формата : BigИдентификатор кодека : 2000Продолжительность : 22 м. 4 с.Вид битрейта : ПостоянныйБитрейт : 192 Кбит/секКаналы : 2 каналаРасположение каналов : Front: L RЧастота : 48,0 КГцЧастота кадров : 31,250 кадров/сек (1536 spf)Метод сжатия : С потерямиРазмер потока : 30,3 Мбайт (11%)Выравнивание : Разделение по промежуткамПродолжительность промежутка : 42 мс. (1,00 видеокадр)Время предзагрузки промежутка : 500 мс.

Аудио #2Идентификатор : 2Формат : AC-3Формат/Информация : Audio Coding 3Расширение режима : CM (complete main)Параметр Endianness формата : BigИдентификатор кодека : 2000Продолжительность : 22 м. 5 с.Вид битрейта : ПостоянныйБитрейт : 192 Кбит/секКаналы : 2 каналаРасположение каналов : Front: L RЧастота : 48,0 КГцЧастота кадров : 31,250 кадров/сек (1536 spf)Метод сжатия : С потерямиРазмер потока : 30,3 Мбайт (11%)Выравнивание : Разделение по промежуткамПродолжительность промежутка : 42 мс. (1,00 видеокадр)Время предзагрузки промежутка : 500 мс.


Трекер:  [ 11-Янв-2017 11:30 ]

  

Скачать .torrent

Размер .torrent файла 19 KB


Размер: 3.67 GB
Хэш (hash) релиза: 267415d4460640bd2f3b8af52bae795555db4523
Подписка на обновления:

Торренты, похожие на Мой маленький пони. Дружба - это чудо My Little Pony: Friendship Is Magic скачать торрент

Форум Название Автор Размер S L Добавлен
Мультсериалы ·· Мой маленький пони. Дружба - это чудо / My Little Pony: Friendship Is Magic / Сезон: 6 / Серии: 1-13,19 (26) (Джейсон Тиссен / Jayson Thiessen, Джеймс Вуттон / James Wootton) [2016, комедия, семейный, фэнтези, WEB-DL 720p] Dub (Карусель) + Subs Galfimbul 1083335853710.09 GB 0 0 1484128987

13:03

11-Янв-17

Еще никто не оставлял запись к записи скачать торрент Мой маленький пони. Дружба - это чудо My Little Pony: Friendship Is Magic . Будь первым!

!Обратная связь