Скачать через торрент Субботним Вечером в Прямом Эфире Saturday Night Live Фильм бесплатно в хорошем качестве torrent

Скачивайте на UnionPeer.org фильмы через торрент без регистрации. Новинки кино в хорошем качестве через торрент. На UnionPeer.org можно скачать через торрент фильмы 2014 и 2015 годов. Самые новые фильмы.

Скачать торрент Субботним Вечером в Прямом Эфире Saturday Night Live бесплатно через .torrent фильм мультфильм сериал

Если у вас наблюдаются проблемы со скриншотами, переходом по ссылками, скачиванием торрентов - проблемы в блокировщике рекламы AdBlock. #хорошегоДня!


Статистика раздачи
Размер:  14.58 GB   |    Зарегистрирован:  8 месяцев   |    .torrent скачан:  9 раз   |   
Раздают:  1  
   
Загрузка...
 
Автор Сообщение

Galfimbul

avatar Galfimbul


Субботним Вечером в Прямом Эфире / Saturday Night Live

Дата/Год выпуска: 2016
Страна: США
Жанр: комедия, пародия, музыка
Продолжительность: около 1:08:00
Перевод: cубтитры (hvblack)

Режиссер: Дон Рой Кинг
Телеканал: NBC

Описание: Saturday Night Live («Субботним вечером в прямом эфире») — вечерняя музыкально-юмористическая передача на американском канале NBC, одна из самых популярных и долгоиграющих в истории телевидения США. Премьера состоялась 11 октября 1975 года.
По формату программа состоит из юмористических реприз и 1-2 музыкальных номеров. Большинство реприз разыгрываются в прямом эфире комедийными актерами — членами постоянной труппы, при участии приглашенного ведущего (как правило, популярной знаменитости) и музыкального гостя, которые могут быть одним лицом. Созданием реприз занимаются как актеры, так и штат писателей-сценаристов программы.

<a href="tracker.php?f=24&nm=saturday%20night%20live" class="postLink">"Субботним Вечером в Прямом Эфире" на Рутрекере</a>

Сэмпл

Качество: WEBRip 1080p
Формат: MKV
Видео: AVC, 1920x1080 (16:9), 29,970 кадр/сек, ~4100 Кбит/сек, ~0.100 бит/пиксель
Аудио: AAC, 44,1 КГц, 2 канала, 192 Кбит/сек
4. Том Хэнкс / Леди Гага 7. Кристен Уиг / The xx 9. Джон Сина / Марен Моррис 11. Фелисити Джонс / Стерджил Симпсон
ОбщееУникальный идентификатор : 202909357614258072162961336561321850521 (0x98A6EBB8680757A18C0D7E36D3773699)Полное имя : ...\Saturday Night Live s42 WEBRip 1080p\Saturday Night Live - 42x01 - Margot Robbie and The Weeknd.mkvФормат : MatroskaВерсия формата : Version 4 / Version 2Размер файла : 2,05 ГбайтПродолжительность : 1 ч. 8 м.Общий поток : 4281 Кбит/секДата кодирования : UTC 2016-10-02 05:38:23Программа кодирования : mkvmerge v7.9.0 ('Birds') 32bitБиблиотека кодирования : libebml v1.3.1 + libmatroska v1.4.2

ВидеоИдентификатор : 1Формат : AVCФормат/Информация : Advanced Video CodecПрофиль формата : High@L4Параметр CABAC формата : ДаПараметр ReFrames формата : 1 кадрИдентификатор кодека : V_MPEG4/ISO/AVCПродолжительность : 1 ч. 8 м.Битрейт : 4182 Кбит/секШирина : 1920 пикселейВысота : 1080 пикселейСоотношение сторон : 16:9Режим частоты кадров : ПостоянныйЧастота кадров : 29,970 (30000/1001) кадров/секЦветовое пространство : YUVСубдискретизация насыщенности : 4:2:0Битовая глубина : 8 битТип развёртки : ПрогрессивнаяБит/(Пиксели*Кадры) : 0.067Размер потока : 2,00 Гбайт (98%)Default : ДаForced : Нет

АудиоИдентификатор : 2Формат : AACФормат/Информация : Advanced Audio CodecПрофиль формата : LCИдентификатор кодека : A_AACПродолжительность : 1 ч. 8 м.Битрейт : 96,0 Кбит/секКаналы : 2 каналаРасположение каналов : Front: L RЧастота : 44,1 КГцЧастота кадров : 43,066 кадра/сек (1024 spf)Метод сжатия : С потерямиРазмер потока : 47,1 Мбайт (2%)Default : ДаForced : Нет

ТекстИдентификатор : 3Формат : UTF-8Идентификатор кодека : S_TEXT/UTF8Идентификатор кодека/Информация : UTF-8 Plain TextПродолжительность : 1 ч. 8 м.Битрейт : 269 бит/секCount of elements : 2084Размер потока : 135 Кбайт (0%)Язык : EnglishDefault : НетForced : Нет
Внимание! Раздача ведётся путём добавления новых серий; при каждом добавлении создаётся новый торрент. Чтобы начать докачку новой серии, пользователям необходимо сделать следующее:
(1) остановить скачивание,
(2) удалить старый торрент у себя из клиента (старые серии удалять не надо),
(3) скачать новый торрент и запустить его у себя в клиенте вместо старого, при этом указать клиенту путь в старую папку куда и должно происходить скачивание новых серий.

Ваш клиент при этом должен произвести хеширование (проверку) старой папки (если не производит сам - помогите ему сделать это), и будет докачивать только те серии которых у вас ещё нет. Старые серии при этом не удаляются, а продолжают раздаваться!

Eсли вы уже удалили старые серии, то предотвратить повторную закачку старых серий можно, отжав галочку в соответствующих местах при запуске нового торрента. По возможности, желательно не удалять старые серии как можно дольше чтобы релизёр не столько продолжал раздавать старые серии, а смог сконцентрироваться на новых.


Трекер:  [ 10-Янв-2017 17:30 ]

  

Скачать .torrent

Размер .torrent файла 74 KB


Размер: 14.58 GB
Хэш (hash) релиза: d25b2046598a50a5ea0942b9debea269d175e2cb
Подписка на обновления:

Еще никто не оставлял запись к записи скачать торрент Субботним Вечером в Прямом Эфире Saturday Night Live . Будь первым!

!Обратная связь