Скачать через торрент Самый лучший фильм 2 Фильм бесплатно в хорошем качестве torrent

Скачивайте на UnionPeer.org фильмы через торрент без регистрации. Новинки кино в хорошем качестве через торрент. На UnionPeer.org можно скачать через торрент фильмы 2014 и 2015 годов. Самые новые фильмы.

Скачать торрент Самый лучший фильм 2 бесплатно через .torrent фильм мультфильм сериал

Статистика раздачи
Размер:  1.46 GB   |    Зарегистрирован:  1 месяц 16 дней   |    .torrent скачан:  22 раза   |   
Раздают:  1  
   
 
Автор Сообщение

Galfimbul

avatar Galfimbul


10.01.17 раздача обновлена, DVDRip заменён на BDRip.
Самый лучший фильм 2

Жанр: комедия, пародия
Год выпуска: 2009
Продолжительность: 01:25:00

Режиссёр: Олег Фомин

В ролях: Тимур Батрутдинов, Гарик Харламов, Дмитрий Хрусталев, Олег Верещагин, Михаил Галустян, Дмитрий Нагиев, Александр Баширов, Сергей Лазарев, Екатерина Конисевич, Татьяна Лютаева...

Описание: Четверо закадычных друзей — Моряк, Актер, Мажор и Димати — после долгой разлуки встречаются в московском кафе отметить день рождения Мажора. На сей раз у них есть наличные, чтобы расплатиться с официанткой. И бегать по городу в поисках денег они будут совершенно по другой причине. Мажора похитили и требуют выкуп — миллион евро.

Чем друзья будут расплачиваться с бандитами, кто найдет новую любовь, а вместе с ней и приключения на все органы жизнедеятельности, кому придется испытать все тяготы сложного пути шоу-бизнеса к популярности, каково рэпперу кавказской наружности гулять одному по безлюдным улицам?! Но все это впереди, а пока они молоды, красивы, полны сил, надежд и ждут приключений!

Сэмпл: http://sendfile.su/1297869

Качество видео: <a href="viewtopic.php?t=5323615" class="postLink">BDRip-AVC</a>
Формат видео: MKV

Видео: 900x384 (2.35:1), 24.000 fps, AVC, ~2008 Kbps, 0.242 bits/pixel
Аудио: Russian, 48.0 KHz, AC3, 6 ch, 448 Kbps

avs4x26x.exe: -L x264_64.exe --pass 2 --bitrate 2008 --preset medium --ref 10 --deblock -1:-1 --merange 32 --bframes 10 --direct auto --b-adapt 2 --trellis 2 --no-fast-pskip --subme 10 --me umh --rc-lookahead 50 --vbv-bufsize 14000 --vbv-maxrate 14000 --partitions p8x8,b8x8,i4x4,i8x8 --sar 1:1 --stats

raw [info]: 900x384p 1:1 @ 24/1 fps (cfr)
x264 [info]: using SAR=1/1
x264 [info]: using cpu capabilities: MMX2 SSE2Fast LZCNT
x264 [info]: profile High, level 3.1
x264 [info]: frame I:1093 Avg QP:16.43 size: 76395
x264 [info]: frame P:28070 Avg QP:20.00 size: 23956
x264 [info]: frame B:93236 Avg QP:23.39 size: 5611
x264 [info]: consecutive B-frames: 2.7% 2.8% 11.1% 23.6% 17.7% 32.1% 4.7% 1.6% 1.6% 0.7% 1.4%
x264 [info]: mb I I16..4: 4.9% 64.9% 30.2%
x264 [info]: mb P I16..4: 0.7% 8.3% 2.5% P16..4: 35.5% 28.1% 17.9% 0.0% 0.0% skip: 7.0%
x264 [info]: mb B I16..4: 0.1% 0.8% 0.4% B16..8: 38.1% 11.6% 4.3% direct: 4.6% skip:40.2% L0:42.7% L1:41.9% BI:15.4%
x264 [info]: 8x8 transform intra:68.8% inter:60.1%
x264 [info]: direct mvs spatial:97.9% temporal:2.1%
x264 [info]: coded y,uvDC,uvAC intra: 88.7% 86.7% 64.7% inter: 25.3% 21.5% 7.3%
x264 [info]: i16 v,h,dc,p: 37% 25% 5% 32%
x264 [info]: i8 v,h,dc,ddl,ddr,vr,hd,vl,hu: 11% 12% 5% 9% 14% 13% 13% 11% 12%
x264 [info]: i4 v,h,dc,ddl,ddr,vr,hd,vl,hu: 9% 16% 3% 8% 14% 13% 13% 11% 12%
x264 [info]: i8c dc,h,v,p: 39% 23% 20% 18%
x264 [info]: Weighted P-Frames: Y:3.8% UV:1.6%
x264 [info]: ref P L0: 47.4% 15.6% 15.5% 5.4% 4.9% 3.1% 3.2% 1.6% 1.8% 1.5% 0.1% 0.0%
x264 [info]: ref B L0: 77.6% 10.2% 4.7% 2.4% 1.7% 1.4% 1.1% 0.6% 0.3%
x264 [info]: ref B L1: 95.6% 4.4%
x264 [info]: kb/s:2006.49

x264 [total]: encoded 122399 frames, 12.19 fps, 2006.49 kb/s
General
Unique ID : 185525057078601465171174804368178686573 (0x8B92D3877DC4FBA69B1881B7A7E62A6D)
Complete name : C:\Самый лучший фильм 2.mkv
Format : Matroska
Format version : Version 4 / Version 2
File size : 1.46 GiB
Duration : 1h 25mn
Overall bit rate : 2 456 Kbps
Encoded date : UTC 2016-12-24 15:14:00
Writing application : mkvmerge v9.6.0 ('Slave To Your Mind') 64bit
Writing library : libebml v1.3.4 + libmatroska v1.4.5

Video
ID : 1
Format : AVC
Format/Info : Advanced Video Codec
Format profile : High@L3.1
Format settings, CABAC : Yes
Format settings, ReFrames : 10 frames
Codec ID : V_MPEG4/ISO/AVC
Duration : 1h 24mn
Bit rate : 2 008 Kbps
Width : 900 pixels
Height : 384 pixels
Display aspect ratio : 2.35:1
Frame rate mode : Constant
Frame rate : 24.000 fps
Color space : YUV
Chroma subsampling : 4:2:0
Bit depth : 8 bits
Scan type : Progressive
Bits/(Pixel*Frame) : 0.242
Stream size : 1.19 GiB (82%)
Writing library : x264 core 148 r2744 b97ae06
Encoding settings : cabac=1 / ref=10 / deblock=1:-1:-1 / analyse=0x3:0x113 / me=umh / subme=10 / psy=1 / psy_rd=1.00:0.00 / mixed_ref=1 / me_range=32 / chroma_me=1 / trellis=2 / 8x8dct=1 / cqm=0 / deadzone=21,11 / fast_pskip=0 / chroma_qp_offset=-2 / threads=6 / lookahead_threads=1 / sliced_threads=0 / nr=0 / decimate=1 / interlaced=0 / bluray_compat=0 / constrained_intra=0 / bframes=10 / b_pyramid=2 / b_adapt=2 / b_bias=0 / direct=3 / weightb=1 / open_gop=0 / weightp=2 / keyint=250 / keyint_min=24 / scenecut=40 / intra_refresh=0 / rc_lookahead=50 / rc=2pass / mbtree=1 / bitrate=2008 / ratetol=1.0 / qcomp=0.60 / qpmin=0 / qpmax=69 / qpstep=4 / cplxblur=20.0 / qblur=0.5 / vbv_maxrate=14000 / vbv_bufsize=14000 / nal_hrd=none / filler=0 / ip_ratio=1.40 / aq=1:1.00
Language : Russian
Default : Yes
Forced : No

Audio
ID : 2
Format : AC-3
Format/Info : Audio Coding 3
Mode extension : CM (complete main)
Format settings, Endianness : Big
Codec ID : A_AC3
Duration : 1h 25mn
Bit rate mode : Constant
Bit rate : 448 Kbps
Channel(s) : 6 channels
Channel positions : Front: L C R, Side: L R, LFE
Sampling rate : 48.0 KHz
Frame rate : 31.250 fps (1536 spf)
Compression mode : Lossy
Stream size : 272 MiB (18%)
Language : Russian
Default : Yes
Forced : No

Menu
00:00:00.000 : :Chapter 01
00:05:42.666 : :Chapter 02
00:09:44.500 : :Chapter 03
00:17:02.333 : :Chapter 04
00:20:12.000 : :Chapter 05
00:21:49.625 : :Chapter 06
00:27:24.833 : :Chapter 07
00:33:24.000 : :Chapter 08
00:42:59.541 : :Chapter 09
00:46:48.500 : :Chapter 10
00:51:24.416 : :Chapter 11
00:56:31.416 : :Chapter 12
01:03:44.041 : :Chapter 13
01:09:07.208 : :Chapter 14
01:16:18.416 : :Chapter 15
01:22:49.500 : :Chapter 16
01:24:59.833 : :Chapter 17
<a href="viewtopic.php?t=5314477" class="postLink">...5314477</a>
http://screenshotcomparison.com/comparison/196531/picture:4


Трекер:  [ 10-Янв-2017 17:30 ]

  

Скачать .torrent

Размер .torrent файла 15 KB


Размер: 1.46 GB
Хэш (hash) релиза: 0d7ce42918bd6c80d306d000b34088e6d7a56403
Подписка на обновления:

Торренты, похожие на Самый лучший фильм 2 скачать торрент

Форум Название Автор Размер S L Добавлен
Российские фильмы до 2016 ·· Самый лучший фильм 2 (Олег Фомин) [2009, Россия, комедия, пародия, Blu-ray disc 1080p] + Original Rus Galfimbul 1656964580815.43 GB 0 0 1482734398

09:39

26-Дек-16

Российские фильмы до 2016 ·· Самый лучший фильм 2 (Олег Фомин) [2009, Россия, комедия, пародия, BDRip 720p] Galfimbul 49938256874.65 GB 0 0 1482497821

15:57

23-Дек-16

Российские фильмы до 2016 ·· Самый лучший фильм 2 (Олег Фомин) [2009, Россия, комедия, пародия, BDRip 720p] + Original Rus Galfimbul 46817364454.36 GB 0 0 1480253764

16:36

27-Ноя-16

Российские фильмы до 2016 ·· Самый лучший фильм 2 (Олег Фомин) [2009, комедия, пародия, BDRip-AVC] Galfimbul 15720793211.46 GB 0 0 1479710195

09:36

21-Ноя-16

Российские фильмы до 2016 ·· Самый лучший фильм 2 (Олег Фомин) [2009, комедия, пародия, DVDRip-AVC] Galfimbul 15513320011.44 GB 0 0 1424456190

21:16

20-Фев-15

Российские фильмы до 2016 ·· Самый лучший фильм 2 (Олег Фомин) [2009 г., Комедия, DVDRip] Romeo_RUS 15652106241.46 GB 0 0 1291540732

12:18

5-Дек-10

Еще никто не оставлял запись к записи скачать торрент Самый лучший фильм 2 . Будь первым!

!Обратная связь