Скачать через торрент [ATV3] Инферно Inferno бесплатно русская версия torrent активатор

Если у вас наблюдаются проблемы со скриншотами, переходом по ссылками, скачиванием торрентов - проблемы в блокировщике рекламы AdBlock. #хорошегоДня!


Статистика раздачи
Размер:  8.08 GB   |    Зарегистрирован:  8 месяцев   |    .torrent скачан:  26 раз   |   
Раздают:  1  
   
Загрузка...
 
Автор Сообщение

Galfimbul

avatar Galfimbul


<span class="post-font-serif1">Инферно / Inferno
«Every clue will take him deeper»

6.422 / 10 6.20 / 10
Год выпуска: 2016
Страна: США
Жанр: Боевик, триллер, драма, криминал, детектив, приключения
Продолжительность: 02:01:35

Перевод: Дублированный (iTunes)
Оригинальная аудиодорожка: Есть
Cубтитры: Русские форсированные, Английские форсированные, Украинские форсированные, Русские, Английские, Украинские
Режиссёр: Рон Ховард
Сценарий: Дэвид Кепп, Дэн Браун
Продюсер: Дэн Браун, Уильям М. Коннор, Анна Калп
Оператор: Сальваторе Тотино
Композитор: Ханс Циммер
Художник: Питер Венхам, Бенце Эрдейи, Жужа Кисмарти-Лехнер
Монтаж: Том Элкинс, Дэниэл П. Хэнли
В ролях: Том Хэнкс, Фелисити Джонс, Омар Си, Ирфан Кхан, Сидсе Бабетт Кнудсен, Бен Фостер, Ана Улару, Ида Дарвиш, Paolo Antonio Simioni, Alessandro Grimaldi

Бюджет: $75 000 000
Сборы в США: $34 257 924
Сборы в мире: + $185 650 596 = $219 908 520
Сборы в России: $9 128 816

Мировая премьера: 8 октября 2016
Премьера (РФ): 13 октября 2016, «WDSSPR»

Описание: Профессор Роберт Лэнгдон приходит в сознание в одной из итальянских больниц, полностью потеряв память. Местный врач Сиенна Брукс пытается помочь Роберту не только восстановить воспоминания, но и остановить загадочных злоумышленников, которые намерены распространить смертоносный вирус. Разгадка таинственной истории связана с «Адом» (ит. Inferno) — первой частью «Божественной комедии» Данте.
Качество исходника: BDRemux (HDClub)
Качество: BDRip
Тип: HD (1080p)
Контейнер: M4V
Видео: H.264, 1920x1040, 1.85:1, 8 000 Kbps, 23.976 fps

Аудио 1: Русский/Дублированный (iTunes), AAC / 2.0 / 160 Kbps / 48.0 KHz
Аудио 2: Английский/Оригинальная дорожка , AAC / 2.0 / 160 Kbps / 48.0 KHz
Аудио 3: Украинский/Дублированный (iTunes), AAC / 2.0 / 160 Kbps / 48.0 KHz
Аудио 4: Русский/Дублированный (iTunes), AC-3 / 5.1 / 384 Kbps / 48.0 KHz
Аудио 5: Английский/Оригинальная дорожка , AC-3 / 5.1 / 640 Kbps / 48.0 KHz

Субтитры 1: Русские форсированные
Субтитры 2: Английские форсированные
Субтитры 3: Украинские форсированные
Субтитры 4: Русские полные
Субтитры 5: Английские полные
Субтитры 6: Украинские полные



</span>
Sort Name: Inferno
XID: Apple:vendor_id:2016-780470
contentID: 1159466783
Screenwriters: Дэвид Кепп, Дэн Браун
Producers: Дэн Браун, Уильям М. Коннор, Анна Калп
Director: Рон Ховард
Cast: Том Хэнкс, Фелисити Джонс, Омар Си, Ирфан Кхан, Сидсе Бабетт Кнудсен, Бен Фостер, Ана Улару, Ида Дарвиш, Paolo Antonio Simioni, Alessandro Grimaldi
Studio: Columbia Pictures
Rating Annotation: Rated PG-13 for sequences of action and violence, disturbing images, some language, thematic elements and brief sensuality.
Rating: 4
Long Description: Профессор Роберт Лэнгдон приходит в сознание в одной из итальянских больниц, полностью потеряв память. Местный врач Сиенна Брукс пытается помочь Роберту не только восстановить воспоминания, но и остановить загадочных злоумышленников, которые намерены распространить смертоносный вирус. Разгадка таинственной истории связана с "Адом" (ит. Inferno) - первой частью "Божественной комедии" Данте.
Description: Оказавшись в самом загадочном городе Италии - Флоренции, профессор Лэнгдон, специалист по кодам, символам и истории искусства, неожиданно попадает в водоворот событий, которые способны привести к гибели всего человечества. И помешать этому может только разгадка тайны, некогда зашифрованной Данте в строках бессмертной эпической поэмы.
Release Date: 2016-10-08T08:00:00Z
Genre: Thriller
Artist: Ron Howard
Name: Inferno
General
Complete name : /Users/imac/HandBrake/Inferno (1080p HD).m4v
Format : MPEG-4
Codec ID : M4V
File size : 8.08 GiB
Duration : 2h 1mn
Overall bit rate mode : Variable
Overall bit rate : 9 508 Kbps
Movie name : Inferno
Performer : Ron Howard
Director : Рон Ховард
Actor : Том Хэнкс / Фелисити Джонс / Омар Си / Ирфан Кхан / Сидсе Бабетт Кнудсен / Бен Фостер / Ана Улару / Ида Дарвиш / Paolo Antonio Simioni / Alessandro Grimaldi
Screenplay by : Дэвид Кепп / Дэн Браун
Producer : Дэн Браун / Уильям М. Коннор / Анна Калп
Production studio : Columbia Pictures
Genre : Thriller
ContentType : Short Film
Description : Оказавшись в самом загадочном городе Италии - Флоренции, профессор Лэнгдон, специалист по кодам, символам и истории искусства, неожиданно попадает в водоворот событий, которые способны привести к гибели всего человечества. И помешать этому может только разгадка тайны, некогда зашифрованной Данте в строках бессмертной эпической поэмы.
Recorded date : UTC 2016-10-08 08:00:00
Encoded date : UTC 2017-01-10 10:01:56
Tagged date : UTC 2017-01-10 10:07:59
Cover : Yes
Rating : None
Title/Sort : Inferno
LongDescription : Профессор Роберт Лэнгдон приходит в сознание в одной из итальянских больниц, полностью потеряв память. Местный врач Сиенна Брукс пытается помочь Роберту не только восстановить воспоминания, но и остановить загадочных злоумышленников, которые намерены распространить смертоносный вирус. Разгадка таинственной истории связана с "Адом" (ит. Inferno) - первой частью "Божественной комедии" Данте.
AppleStoreCatalogID : 1159466783
Vendor : Apple:vendor_id:2016-780470
ContentRating : mpaa|PG-13|300|Rated PG-13 for sequences of action and violence, disturbing images, some language, thematic elements and brief sensuality.

Video #1
ID : 1
Format : AVC
Format/Info : Advanced Video Codec
Format profile : High@L4
Format settings, CABAC : Yes
Format settings, ReFrames : 4 frames
Codec ID : avc1
Codec ID/Info : Advanced Video Coding
Duration : 2h 1mn
Source duration : 2h 1mn
Bit rate : 8 000 Kbps
Width : 1 920 pixels
Height : 1 040 pixels
Display aspect ratio : 1.85:1
Frame rate mode : Variable
Frame rate : 23.976 fps
Minimum frame rate : 23.974 fps
Maximum frame rate : 23.981 fps
Color space : YUV
Chroma subsampling : 4:2:0
Bit depth : 8 bits
Scan type : Progressive
Bits/(Pixel*Frame) : 0.167
Stream size : 6.79 GiB (84%)
Source stream size : 6.79 GiB (84%)
Title : Main Program
Writing library : x264 core 148 r2708 86b7198
Encoding settings : cabac=1 / ref=4 / deblock=1:-2:-2 / analyse=0x3:0x133 / me=umh / subme=10 / psy=1 / psy_rd=1.00:0.15 / mixed_ref=1 / me_range=32 / chroma_me=1 / trellis=2 / 8x8dct=1 / cqm=0 / deadzone=21,11 / fast_pskip=0 / chroma_qp_offset=-3 / threads=32 / lookahead_threads=8 / sliced_threads=0 / nr=0 / decimate=0 / interlaced=0 / bluray_compat=0 / constrained_intra=0 / bframes=16 / b_pyramid=2 / b_adapt=2 / b_bias=0 / direct=3 / weightb=1 / open_gop=0 / weightp=2 / keyint=240 / keyint_min=24 / scenecut=40 / intra_refresh=0 / rc_lookahead=60 / rc=2pass / mbtree=1 / bitrate=8000 / ratetol=1.0 / qcomp=0.70 / qpmin=0 / qpmax=69 / qpstep=4 / cplxblur=20.0 / qblur=0.5 / vbv_maxrate=25000 / vbv_bufsize=25000 / nal_hrd=none / filler=0 / ip_ratio=1.40 / aq=1:1.00
Language : English
Encoded date : UTC 2017-01-10 10:01:56
Tagged date : UTC 2017-01-10 10:02:12
Color range : Limited
Color primaries : BT.709
Transfer characteristics : BT.709
Matrix coefficients : BT.709

Video #2
ID : 14
Format : JPEG
Codec ID : jpeg
Duration : 2h 1mn
Bit rate mode : Variable
Bit rate : 757 bps
Width : 640 pixels
Height : 345 pixels
Display aspect ratio : 1.85:1
Frame rate mode : Variable
Frame rate : 0.002 fps
Minimum frame rate : 0.001 fps
Maximum frame rate : 0.007 fps
Color space : YUV
Chroma subsampling : 4:2:0
Bit depth : 8 bits
Compression mode : Lossy
Bits/(Pixel*Frame) : 1.714
Stream size : 739 KiB (0%)
Title : Chapter Images
Language : English
Encoded date : UTC 2017-01-10 10:03:39
Tagged date : UTC 2017-01-10 10:03:39

Audio #1
ID : 2
Format : AAC
Format/Info : Advanced Audio Codec
Format profile : LC
Codec ID : 40
Duration : 2h 1mn
Bit rate mode : Variable
Bit rate : 157 Kbps
Maximum bit rate : 276 Kbps
Channel(s) : 2 channels
Channel positions : Front: L R
Sampling rate : 48.0 KHz
Compression mode : Lossy
Stream size : 137 MiB (2%)
Title : Russian Stereo
Language : Russian
Encoded date : UTC 2017-01-10 10:01:56
Tagged date : UTC 2017-01-10 10:02:14

Audio #2
ID : 3
Format : AAC
Format/Info : Advanced Audio Codec
Format profile : LC
Codec ID : 40
Duration : 2h 1mn
Bit rate mode : Variable
Bit rate : 159 Kbps
Maximum bit rate : 226 Kbps
Channel(s) : 2 channels
Channel positions : Front: L R
Sampling rate : 48.0 KHz
Compression mode : Lossy
Stream size : 138 MiB (2%)
Title : English Stereo
Language : English
Encoded date : UTC 2017-01-10 10:01:56
Tagged date : UTC 2017-01-10 10:02:14

Audio #3
ID : 4
Format : AAC
Format/Info : Advanced Audio Codec
Format profile : LC
Codec ID : 40
Duration : 2h 1mn
Bit rate mode : Variable
Bit rate : 157 Kbps
Maximum bit rate : 224 Kbps
Channel(s) : 2 channels
Channel positions : Front: L R
Sampling rate : 48.0 KHz
Compression mode : Lossy
Stream size : 137 MiB (2%)
Title : Ukrainian Stereo
Language : Ukrainian
Encoded date : UTC 2017-01-10 10:01:56
Tagged date : UTC 2017-01-10 10:02:14

Audio #4
ID : 5
Format : AC-3
Format/Info : Audio Coding 3
Mode extension : CM (complete main)
Format settings, Endianness : Big
Codec ID : ac-3
Duration : 2h 1mn
Bit rate mode : Constant
Bit rate : 384 Kbps
Channel(s) : 6 channels
Channel positions : Front: L C R, Side: L R, LFE
Sampling rate : 48.0 KHz
Bit depth : 16 bits
Compression mode : Lossy
Stream size : 334 MiB (4%)
Title : Russian DD 5.1
Language : Russian
Encoded date : UTC 2017-01-10 10:01:56
Tagged date : UTC 2017-01-10 10:02:05

Audio #5
ID : 6
Format : AC-3
Format/Info : Audio Coding 3
Mode extension : CM (complete main)
Format settings, Endianness : Big
Codec ID : ac-3
Duration : 2h 1mn
Bit rate mode : Constant
Bit rate : 640 Kbps
Channel(s) : 6 channels
Channel positions : Front: L C R, Side: L R, LFE
Sampling rate : 48.0 KHz
Bit depth : 16 bits
Compression mode : Lossy
Stream size : 557 MiB (7%)
Title : English DD 5.1
Language : English
Encoded date : UTC 2017-01-10 10:01:56
Tagged date : UTC 2017-01-10 10:02:05

Text #1
ID : 7
Format : Timed Text
Muxing mode : sbtl
Codec ID : tx3g
Duration : 1h 55mn
Bit rate mode : Variable
Bit rate : 3 bps
Stream size : 2.78 KiB (0%)
Title : Russian forced
Language : Russian
Encoded date : UTC 2017-01-10 10:01:56
Tagged date : UTC 2017-01-10 10:03:31

Text #2
ID : 8
Format : Timed Text
Muxing mode : sbtl
Codec ID : tx3g
Duration : 1h 8mn
Bit rate mode : Variable
Bit rate : 2 bps
Stream size : 1.16 KiB (0%)
Title : English forced
Language : English
Encoded date : UTC 2017-01-10 10:01:56
Tagged date : UTC 2017-01-10 10:03:31

Text #3
ID : 9
Format : Timed Text
Muxing mode : sbtl
Codec ID : tx3g
Duration : 2h 1mn
Bit rate mode : Variable
Bit rate : 3 bps
Stream size : 2.73 KiB (0%)
Title : Ukrainian forced
Language : Ukrainian
Encoded date : UTC 2017-01-10 10:01:56
Tagged date : UTC 2017-01-10 10:03:31

Text #4
ID : 10
Format : Timed Text
Muxing mode : sbtl
Codec ID : tx3g
Duration : 1h 56mn
Bit rate mode : Variable
Bit rate : 98 bps
Stream size : 83.4 KiB (0%)
Title : Russian full
Language : Russian
Encoded date : UTC 2017-01-10 10:01:56
Tagged date : UTC 2017-01-10 10:03:31

Text #5
ID : 11
Format : Timed Text
Muxing mode : sbtl
Codec ID : tx3g
Duration : 1h 56mn
Bit rate mode : Variable
Bit rate : 63 bps
Stream size : 53.4 KiB (0%)
Title : English full
Language : English
Encoded date : UTC 2017-01-10 10:01:56
Tagged date : UTC 2017-01-10 10:03:31

Text #6
ID : 12
Format : Timed Text
Muxing mode : sbtl
Codec ID : tx3g
Duration : 1h 56mn
Bit rate mode : Variable
Bit rate : 96 bps
Stream size : 81.9 KiB (0%)
Title : Ukrainian full
Language : Ukrainian
Encoded date : UTC 2017-01-10 10:01:56
Tagged date : UTC 2017-01-10 10:03:31

Menu #1
00:00:00.000 : Chapter 1
00:04:12.794 : Chapter 2
00:12:32.502 : Chapter 3
00:23:42.588 : Chapter 4
00:36:02.369 : Chapter 5
00:51:11.277 : Chapter 6
00:59:16.553 : Chapter 7
01:01:42.616 : Chapter 8
01:07:42.308 : Chapter 9
01:13:24.692 : Chapter 10
01:20:01.422 : Chapter 11
01:24:36.613 : Chapter 12
01:31:24.896 : Chapter 13
01:35:41.861 : Chapter 14
01:40:50.836 : Chapter 15
01:52:27.574 : Chapter 16

Menu #2
ID : 13
Codec ID : text
Duration : 2h 1mn
Language : English
Encoded date : UTC 2017-01-10 10:03:31
Tagged date : UTC 2017-01-10 10:03:31
00:00:00.000 : Chapter 1
00:04:12.794 : Chapter 2
00:12:32.502 : Chapter 3
00:23:42.588 : Chapter 4
00:36:02.369 : Chapter 5
00:51:11.277 : Chapter 6
00:59:16.553 : Chapter 7
01:01:42.616 : Chapter 8
01:07:42.308 : Chapter 9
01:13:24.692 : Chapter 10
01:20:01.422 : Chapter 11
01:24:36.613 : Chapter 12
01:31:24.896 : Chapter 13
01:35:41.861 : Chapter 14
01:40:50.836 : Chapter 15
01:52:27.574 : Chapter 16
Bit rate mode : VBR
x264 [info]: frame I:1072  Avg QP:18.75  size:174924
x264 [info]: frame P:49103 Avg QP:22.10  size: 64224
x264 [info]: frame B:124736 Avg QP:23.00  size: 31693
x264 [info]: consecutive B-frames:  5.2%  9.3% 11.1% 33.8% 11.9% 15.1%  6.5%  6.2%  0.5%  0.0%  0.0%  0.3%  0.0%  0.0%  0.0%  0.0%  0.0%
x264 [info]: mb I  I16..4:  6.8% 84.3%  8.9%
x264 [info]: mb P  I16..4:  3.6% 18.6%  1.1%  P16..4: 48.7% 12.9%  7.7%  0.1%  0.0%    skip: 7.2%
x264 [info]: mb B  I16..4:  0.2%  1.5%  0.1%  B16..8: 49.5%  8.4%  1.6%  direct: 6.4%  skip:32.3%  L0:47.4% L1:47.3% BI: 5.3%
x264 [info]: 8x8 transform intra:80.6% inter:70.2%
x264 [info]: direct mvs  spatial:98.8% temporal:1.2%
x264 [info]: coded y,uvDC,uvAC intra: 79.5% 63.8% 23.9% inter: 32.1% 24.2% 3.1%
x264 [info]: i16 v,h,dc,p: 33% 16% 11% 41%
x264 [info]: i8 v,h,dc,ddl,ddr,vr,hd,vl,hu:  8%  7%  9% 11% 15% 13% 14% 12% 12%
x264 [info]: i4 v,h,dc,ddl,ddr,vr,hd,vl,hu: 11%  8%  3% 10% 15% 15% 14% 11% 13%
x264 [info]: i8c dc,h,v,p: 39% 25% 20% 17%
x264 [info]: Weighted P-Frames: Y:2.0% UV:1.1%
x264 [info]: ref P L0: 55.3% 11.3% 22.3% 10.2%  0.8%  0.0%
x264 [info]: ref B L0: 87.1% 10.7%  2.2%
x264 [info]: ref B L1: 95.3%  4.7%
x264 [info]: kb/s:7998.94

<span class="post-font-serif1">
Релиз подготовлен для просмотра на Apple TV, iPad, iPhone, <a href="www.apple.com/ipodtouch/" class="postLink">iPod Touch</a>.
Для просмотра данного релиза на компьютере с ОС Windows рекомендуется использовать VLC media player</span>

Трекер:  [ 10-Янв-2017 13:00 ]

  

Скачать .torrent

Размер .torrent файла 81 KB


Размер: 8.08 GB
Хэш (hash) релиза: 68c2b8ce4c06e093258ff01fb421b9475614b2f7

Торренты, похожие на [ATV3] Инферно Inferno скачать торрент

Форум Название Автор Размер S L Добавлен
Видео (iPhone/iPod Touch/iPad) ·· [ATV3] Инферно / Inferno (Рон Ховард / Ron Howard ) [2016, США, Боевик, триллер, драма, криминал, детектив, приключения, WEB-DL, HD (1080p)] DUB + Original + sub (rus, eng, ukr) Galfimbul 58458658465.44 GB 0 0 1483578617

04:10

5-Янв-17

Еще никто не оставлял запись к записи скачать торрент [ATV3] Инферно Inferno . Будь первым!

!Обратная связь