Скачать через торрент 74-я Церемония Вручения Премии Золотой Глобус 2017 74th Golden Globe Awards 2017 Фильм бесплатно в хорошем качестве torrent

Скачивайте на UnionPeer.org фильмы через торрент без регистрации. Новинки кино в хорошем качестве через торрент. На UnionPeer.org можно скачать через торрент фильмы 2014 и 2015 годов. Самые новые фильмы.

Скачать торрент 74-я Церемония Вручения Премии Золотой Глобус 2017 74th Golden Globe Awards 2017 бесплатно через .torrent фильм мультфильм сериал

Если у вас наблюдаются проблемы со скриншотами, переходом по ссылками, скачиванием торрентов - проблемы в блокировщике рекламы AdBlock. #хорошегоДня!


Статистика раздачи
Размер:  2.09 GB   |    Зарегистрирован:  9 месяцев   |    .torrent скачан:  53 раза   |   
Раздают:  1  
   
Загрузка...
 
Автор Сообщение

Galfimbul

avatar Galfimbul


74-я Церемония Вручения Премии Золотой Глобус 2017 / 74th Golden Globe Awards 2017

Дата/Год выпуска: 08.01.2017
Жанр: Церемония Награждения
Продолжительность: 1:27:41 и 2:10:07
Перевод: Отсутствует
Оригинальная аудиодорожка: английский
Телеканал: Технический фид
Описание: 74-я церемония вручения наград премии «Золотой глобус» за заслуги в области кинематографа и телевидения за 2016 год состоялась 8 января 2017 года в отеле Беверли-Хилтон. Номинанты были объявлены 12 декабря 2016 года.

качество: HDTVRip
формат: MKV
Видео: MPEG4 Video (H264) 1280x720 50fps [V: h264 high L4.0, yuv420p, 1280x720 3000 кб/с
Аудио: MPEG Audio 48000Hz stereo 256kbps [A: English [eng] (mp2, 48000 Hz, stereo, 256 kb/s
Здесь выложена только red carper
Ceremony будет выложена дополнительно
GeneralUnique ID : 311899695649100863124566764140412200366 (0xEAA5B243F76E27167F46D8C6FA82E5AE)Complete name : E:\74th Golden Globe Awards.720p\74th Golden Globe Awards.red carpet.720p.mkvFormat : MatroskaFormat version : Version 4 / Version 2File size : 2.09 GiBDuration : 1h 27mnOverall bit rate : 3 416 KbpsWriting application : Lavf57.28.102Writing library : Lavf57.28.102

VideoID : 1Format : AVCFormat/Info : Advanced Video CodecFormat profile : High@L4Format settings, CABAC : YesFormat settings, ReFrames : 5 framesCodec ID : V_MPEG4/ISO/AVCDuration : 1h 27mnBit rate : 3 092 KbpsWidth : 1 280 pixelsHeight : 720 pixelsDisplay aspect ratio : 16:9Frame rate mode : ConstantFrame rate : 50.000 fpsColor space : YUVChroma subsampling : 4:2:0Bit depth : 8 bitsScan type : ProgressiveBits/(Pixel*Frame) : 0.067Stream size : 1.89 GiB (91%)Writing library : x264 core 148 r2665 a01e339Encoding settings : cabac=1 / ref=5 / deblock=1:-2:-2 / analyse=0x3:0x113 / me=umh / subme=8 / psy=1 / psy_rd=1.00:0.00 / mixed_ref=1 / me_range=16 / chroma_me=1 / trellis=1 / 8x8dct=1 / cqm=0 / deadzone=21,11 / fast_pskip=0 / chroma_qp_offset=-3 / threads=22 / lookahead_threads=5 / sliced_threads=0 / nr=0 / decimate=0 / interlaced=0 / bluray_compat=0 / constrained_intra=0 / bframes=5 / b_pyramid=2 / b_adapt=2 / b_bias=0 / direct=1 / weightb=1 / open_gop=0 / weightp=2 / keyint=500 / keyint_min=50 / scenecut=40 / intra_refresh=0 / rc_lookahead=50 / rc=crf / mbtree=1 / crf=20.8 / qcomp=0.60 / qpmin=0 / qpmax=69 / qpstep=4 / vbv_maxrate=4500 / vbv_bufsize=5000 / crf_max=0.0 / nal_hrd=none / filler=0 / ip_ratio=1.40 / aq=1:1.00Default : YesForced : NoDURATION : 01:27:41.300000000

AudioID : 2Format : MPEG AudioFormat version : Version 1Format profile : Layer 2Codec ID : A_MPEG/L2Codec ID/Hint : MP2Duration : 1h 27mnBit rate mode : ConstantBit rate : 256 KbpsChannel(s) : 2 channelsSampling rate : 48.0 KHzCompression mode : LossyDelay relative to video : -128msStream size : 161 MiB (7%)Language : EnglishDefault : YesForced : NoDURATION : 01:27:41.232000000


Трекер:  [ 10-Янв-2017 11:30 ]

  

Скачать .torrent

Размер .torrent файла 11 KB


Размер: 2.09 GB
Хэш (hash) релиза: bd2b9efd7ec931c9a505d58c386470310da8f79f
Подписка на обновления:

Торренты, похожие на 74-я Церемония Вручения Премии Золотой Глобус 2017 74th Golden Globe Awards 2017 скачать торрент

Форум Название Автор Размер S L Добавлен
Развлекательные телепередачи и шоу ·· 74-я Церемония Вручения Премии Золотой Глобус 2017 / 74th Golden Globe Awards 2017 [08.01.2017, Церемония Награждения, HDTVRip 720p] Galfimbul 50962278764.75 GB 0 0 1491680448

22:40

8-Апр-17

Еще никто не оставлял запись к записи скачать торрент 74-я Церемония Вручения Премии Золотой Глобус 2017 74th Golden Globe Awards 2017 . Будь первым!

!Обратная связь