Скачать через торрент Братья Вентура The Venture Bros. Фильм бесплатно в хорошем качестве torrent

Скачивайте на UnionPeer.org фильмы через торрент без регистрации. Новинки кино в хорошем качестве через торрент. На UnionPeer.org можно скачать через торрент фильмы 2014 и 2015 годов. Самые новые фильмы.

Скачать торрент Братья Вентура The Venture Bros. бесплатно через .torrent фильм мультфильм сериал

Статистика раздачи
Размер:  4.53 GB   |    Зарегистрирован:  4 месяца 17 дней   |    .torrent скачан:  32 раза   |   
Раздают:  1  
   
 
Автор Сообщение

Galfimbul

avatar Galfimbul


<span class="post-font-serif1">Страна: США
Студия: Astro Base GO!, Titmouse, Inc.
Жанр: Чёрная Комедия, Пародия, Приключения
Продолжительность: ~ 22 мин
Год выпуска: 2006
Перевод: Профессиональный (многоголосый закадровый) [2x2]
Субтитры: Английские, Испанские

Режиссёр: Джексон Паблик, Док Хаммер
Роли озвучивали: Джексон Паблик, Док Хаммер, Джеймс Урбаняк, Патрик Уобертон, Майкл Синтерниклаас, Дана Шнайдер, Стивен Ретеззи
Описание: Американский анимационный сериал известный интересным сценарием, странными персонажами и неожиданными сюжетными поворотами. Повествует о приключениях двух глуповатых подростков, Дина и Хенка, их отца, эгоистичного доктора Тадеуса "Расти" Вентура, и телохранителя, секретного агента Брока Самсона. То, что начиналось как умная пародия на мультсериал "Невероятные приключения Джонни Квеста" и сюжеты про супер героев выросло во вселенную с собственной обширной и уморительной мифологией. Помимо всего прочего, это безумно смешное шоу.
Список серий:
[b]01 Powerless in the Face of Death / Бессильны Перед Лицом Смерти
02 Hate Floats / Ненавижу Шататься
03 Love-Bheits / Несчастная Любовь Барона
04 Escape to the House of Mummies Part II / Побег В Дом Мумий Часть II
05 Twenty Years to Midnight / Двадцать Лет До Полуночи
06 Victor. Echo. November. / Виктор. Эхо. Ноябрь.
07 Assassinanny 911 / Убийца-Нянька 911
08 Fallen Arches / Падший Враг
09 Guess Who's Coming to State Dinner? / Смотрите Кто Пришел На Ужин
10 I Know Why the Caged Bird Kills / Я Знаю Почему Птица В Клетке Убивает
11 Viva los Muertos! / Да Здравствуют Мертвецы!
12 Showdown at Cremation Creek (Part I) / Решающий Бой в Бухте Кремации (Часть I)
13 Showdown at Cremation Creek (Part II) / Решающий Бой в Бухте Кремации (Часть II)

Доп. материалы:
"Deep Inside AstroBase Go!" - Ролик об авторах и создании мультсериала.
32 вырезанные сцены.
Доп. информация: Большое Спасибо <a href="profile.php?mode=viewprofile&u=4566614" class="postLink">#Antisnl#</a> за предоставление качественных записей телеканала [2x2][/b]
<span class="post-font-serif1">Качество: DVDRip-AVC
Формат: MKV
Видео: MPEG-4 AVC, 720x480 (4:3), 23.976 fps, ~ 1450 kbps
Аудио 1: Русский, AC3 Dolby Digital, 2ch, 192 kbps, 48 kHz
Аудио 2: Английский, AC3 Dolby Digital, 6ch, 448 kbps, 48 kHz
Аудио 3: Английский, AC3 Dolby Digital, 2ch, 192 kbps, 48 kHz (комментарии авторов)

Сэмпл
<a href="tracker.php?f=921&nm=venture+bros" class="postLink">Все раздачи мультсериала</a>
<a href="viewtopic.php?t=3567146" class="postLink">1 сезон: DVDRip-AVC</a>
<a href="viewtopic.php?t=3500230" class="postLink">2 сезон: DVDRip-AVC</a>
<a href="viewtopic.php?t=3797711" class="postLink">3 сезон: HDRip</a> | <a href="viewtopic.php?t=3494728" class="postLink">BDRip 720p</a> | <a href="viewtopic.php?t=4313362" class="postLink">BDRip 1080p</a>
<a href="viewtopic.php?t=3797711" class="postLink">4 сезон: HDRip</a> | <a href="viewtopic.php?t=3814672" class="postLink">BDRip 720p</a> | <a href="viewtopic.php?t=4297395" class="postLink">BDRip 1080p</a>
<a href="viewtopic.php?t=3797711" class="postLink">5 сезон: HDRip</a> | <a href="viewtopic.php?t=4312352" class="postLink">BDRip 720p</a> | <a href="viewtopic.php?t=4312404" class="postLink">BDRip 1080p</a> | <a href="viewtopic.php?t=4920985" class="postLink">BDRemux 1080p</a>
<a href="viewtopic.php?t=3797711" class="postLink">6 сезон: HDRip</a> | <a href="viewtopic.php?t=4939717" class="postLink">BDRip 720p</a> | <a href="viewtopic.php?t=4939617" class="postLink">BDRip 1080p</a> | <a href="viewtopic.php?t=4939617" class="postLink">BDRemux 1080p</a>
</span></span>
<span class="post-font-serif1">
Общее
Уникальный идентификатор : 226774704592013596107416762746978272886 (0xAA9B382BEE51B44FAAD076B9918D8676)
Полное имя : D:\Раздачи\The.Venture.Bros.S02.2006.x264.DVDRip-Zuich32\13 Showdown at Cremation Creek (Part II).mkv
Формат : Matroska
Версия формата : Version 4 / Version 2
Размер файла : 373 Мбайт
Продолжительность : 22 м.
Общий поток : 2289 Кбит/сек
Дата кодирования : UTC 2015-02-16 05:43:05
Программа кодирования : mkvmerge v7.6.0 ('Garden of Dreams') 64bit built on Feb 8 2015 13:04:34
Библиотека кодирования : libebml v1.3.1 + libmatroska v1.4.2

Видео
Идентификатор : 1
Формат : AVC
Формат/Информация : Advanced Video Codec
Профиль формата : High@L4.0
Параметр CABAC формата : Да
Параметр ReFrames формата : 16 кадров
Идентификатор кодека : V_MPEG4/ISO/AVC
Продолжительность : 22 м.
Битрейт : 1411 Кбит/сек
Ширина : 720 пикселей
Высота : 480 пикселей
Соотношение сторон : 4:3
Режим частоты кадров : Постоянный
Частота кадров : 23,976 кадра/сек
Стандарт вещания : NTSC
Цветовое пространство : YUV
Субдискретизация насыщенности : 4:2:0
Битовая глубина : 8 бит
Тип развёртки : Прогрессивная
Бит/(Пиксели*Кадры) : 0.170
Размер потока : 230 Мбайт (62%)
Заголовок : Showdown at Cremation Creek (Part II)
Библиотека кодирования : x264 core 142 r2479 dd79a61
Настройки программы : cabac=1 / ref=16 / deblock=1:0:0 / analyse=0x3:0x133 / me=umh / subme=10 / psy=1 / psy_rd=1.00:0.00 / mixed_ref=1 / me_range=24 / chroma_me=1 / trellis=2 / 8x8dct=1 / cqm=0 / deadzone=21,11 / fast_pskip=1 / chroma_qp_offset=-2 / threads=6 / lookahead_threads=1 / sliced_threads=0 / nr=0 / decimate=1 / interlaced=0 / bluray_compat=0 / constrained_intra=0 / bframes=8 / b_pyramid=2 / b_adapt=2 / b_bias=0 / direct=3 / weightb=1 / open_gop=0 / weightp=2 / keyint=250 / keyint_min=23 / scenecut=40 / intra_refresh=0 / rc_lookahead=60 / rc=crf / mbtree=1 / crf=18.0 / qcomp=0.60 / qpmin=0 / qpmax=69 / qpstep=4 / ip_ratio=1.40 / aq=1:1.00
Default : Да
Forced : Нет

Аудио #1
Идентификатор : 2
Формат : AC-3
Формат/Информация : Audio Coding 3
Расширение режима : CM (complete main)
Параметр Endianness формата : Big
Идентификатор кодека : A_AC3
Продолжительность : 22 м.
Вид битрейта : Постоянный
Битрейт : 192 Кбит/сек
Каналы : 2 канала
Расположение каналов : Front: L R
Частота : 48,0 КГц
Битовая глубина : 16 бит
Метод сжатия : С потерями
Размер потока : 31,3 Мбайт (8%)
Заголовок : MVO 2x2 - AC3 Dolby Digital, 2ch, 192 kbps, 48 kHz
Язык : Russian
Default : Да
Forced : Нет

Аудио #2
Идентификатор : 3
Формат : AC-3
Формат/Информация : Audio Coding 3
Расширение режима : CM (complete main)
Параметр Endianness формата : Big
Идентификатор кодека : A_AC3
Продолжительность : 22 м.
Вид битрейта : Постоянный
Битрейт : 448 Кбит/сек
Каналы : 6 каналов
Расположение каналов : Front: L C R, Side: L R, LFE
Частота : 48,0 КГц
Битовая глубина : 16 бит
Метод сжатия : С потерями
Размер потока : 73,0 Мбайт (20%)
Заголовок : Original - AC3 Dolby Digital, 6ch, 448 kbps, 48 kHz
Язык : English
Default : Нет
Forced : Нет

Аудио #3
Идентификатор : 4
Формат : AC-3
Формат/Информация : Audio Coding 3
Расширение режима : CM (complete main)
Параметр Endianness формата : Big
Идентификатор кодека : A_AC3
Продолжительность : 22 м.
Вид битрейта : Постоянный
Битрейт : 192 Кбит/сек
Каналы : 2 канала
Расположение каналов : Front: L R
Частота : 48,0 КГц
Битовая глубина : 16 бит
Метод сжатия : С потерями
Размер потока : 31,3 Мбайт (8%)
Заголовок : Commentary - AC3 Dolby Digital, 2ch, 192 kbps, 48 kHz
Язык : English
Default : Нет
Forced : Нет

Текст #1
Идентификатор : 5
Формат : ASS
Идентификатор кодека : S_TEXT/ASS
Идентификатор кодека/Информация : Advanced Sub Station Alpha
Метод сжатия : Без потерь
Заголовок : Showdown at Cremation Creek (Part II)
Язык : English
Default : Да
Forced : Нет

Текст #2
Идентификатор : 6
Формат : ASS
Идентификатор кодека : S_TEXT/ASS
Идентификатор кодека/Информация : Advanced Sub Station Alpha
Метод сжатия : Без потерь
Заголовок : Showdown at Cremation Creek (Part II)
Язык : Spanish
Default : Нет
Forced : Нет</span>


Трекер:  [ 10-Янв-2017 08:00 ]

  

Скачать .torrent

Размер .torrent файла 15 KB


Размер: 4.53 GB
Хэш (hash) релиза: f5ac6219e41a0edc12d1375e0be89083b5123288
Подписка на обновления:

Еще никто не оставлял запись к записи скачать торрент Братья Вентура The Venture Bros. . Будь первым!

!Обратная связь