Скачать через торрент Волшебные очки Фильм бесплатно в хорошем качестве torrent

Скачивайте на UnionPeer.org фильмы через торрент без регистрации. Новинки кино в хорошем качестве через торрент. На UnionPeer.org можно скачать через торрент фильмы 2014 и 2015 годов. Самые новые фильмы.

Скачать торрент Волшебные очки бесплатно через .torrent фильм мультфильм сериал

Статистика раздачи
Размер:  316 MB   |    Зарегистрирован:  1 месяц 11 дней   |    .torrent скачан:  40 раз   |   
Раздают:  1  
   
 
Автор Сообщение

Galfimbul

avatar Galfimbul


Волшебные очки

Жанр: притча
Год выпуска: 2008
Продолжительность: 00:19:25
Режиссёр: Людмила Ролдугина
В ролях: Александр Алексеев, Юрий Орлов, Настя Успенская, Людмила Ролдулгина, Сергей Малахов, Владислав Фролов

Описание: За огромные деньги приобретает дворянин очки, обладающий которыми способен видеть все стороны человеческой души... Детский короткометражный фильм режиссера Людмилы Ролдугиной *Волшебные очки* снят по произведению протоиерея Григория Дьяченко - известного в православном мире писателя и разностороннего ученого, автора полного словаря церковнославянского языка и прекрасного проповедника. *Волшебные очки* - это рассказ о человеке, увидевшем при помощи чудесных очков мысли и дела окружающих его людей, но забывшего посмотреть через эти чудо-линзы на себя самого в зеркале. Из плена осуждения ближнего героя фильма спасет ангел Божий, явившийся ему перед Рождеством Христовым.

Качество видео: DVDRip
Формат видео: MKV
Видео: AVC, 1016x576 (16:9), 25.000 fps, 2 150 Kbps (0.147 bit/pixel)
Аудио: AC-3, 44.1 KHz, 2 ch, 128 Kbps, CBR (Russian)
Общее
Уникальный идентификатор : 222811276933301643242093706053798722306 (0xA79FE419D742BD259C8341760F61FB02)
Полное имя : D:\Users\Пользователь\Desktop\Волшебные очки.mkv
Формат : Matroska
Версия формата : Version 2
Размер файла : 316 Мбайт
Продолжительность : 19 м.
Общий поток : 2280 Кбит/сек
Дата кодирования : UTC 2016-12-27 11:16:52
Программа кодирования : mkvmerge v7.8.0 ('River Man') 32bit built on Apr 3 2015 12:11:22
Библиотека кодирования : libebml v1.3.1 + libmatroska v1.4.2

Видео
Идентификатор : 1
Формат : AVC
Формат/Информация : Advanced Video Codec
Профиль формата : High@L4.1
Параметр CABAC формата : Да
Параметр ReFrames формата : 12 кадров
Идентификатор кодека : V_MPEG4/ISO/AVC
Продолжительность : 19 м.
Битрейт : 2150 Кбит/сек
Ширина : 1016 пикселей
Высота : 576 пикселей
Соотношение сторон : 16:9
Режим частоты кадров : Постоянный
Частота кадров : 25,000 кадров/сек
Цветовое пространство : YUV
Субдискретизация насыщенности : 4:2:0
Битовая глубина : 8 бит
Тип развёртки : Прогрессивная
Бит/(Пиксели*Кадры) : 0.147
Размер потока : 292 Мбайт (92%)
Библиотека кодирования : x264 core 146 r2538 121396c
Настройки программы : cabac=1 / ref=12 / deblock=1:-2:-2 / analyse=0x3:0x113 / me=umh / subme=10 / psy=1 / psy_rd=1.05:0.10 / mixed_ref=1 / me_range=32 / chroma_me=1 / trellis=2 / 8x8dct=1 / cqm=0 / deadzone=21,11 / fast_pskip=0 / chroma_qp_offset=-3 / threads=3 / lookahead_threads=1 / sliced_threads=0 / nr=0 / decimate=0 / interlaced=0 / bluray_compat=0 / constrained_intra=0 / bframes=16 / b_pyramid=2 / b_adapt=2 / b_bias=0 / direct=3 / weightb=1 / open_gop=0 / weightp=2 / keyint=250 / keyint_min=25 / scenecut=40 / intra_refresh=0 / rc=2pass / mbtree=0 / bitrate=2150 / ratetol=1.0 / qcomp=0.63 / qpmin=0 / qpmax=69 / qpstep=4 / cplxblur=20.0 / qblur=0.5 / ip_ratio=1.25 / pb_ratio=1.30 / aq=1:1.00
Язык : Russian
Default : Да
Forced : Нет
Основные цвета : BT.709
Характеристики трансфера : BT.709
Коэффициенты матрицы : BT.709

Аудио
Идентификатор : 2
Формат : AC-3
Формат/Информация : Audio Coding 3
Расширение режима : CM (complete main)
Параметр Endianness формата : Big
Идентификатор кодека : A_AC3
Продолжительность : 19 м.
Вид битрейта : Постоянный
Битрейт : 128 Кбит/сек
Каналы : 2 канала
Расположение каналов : Front: L R
Частота : 44,1 КГц
Битовая глубина : 16 бит
Метод сжатия : С потерями
Размер потока : 17,7 Мбайт (6%)
Язык : Russian
Default : Да
Forced : Нет


Трекер:  [ 10-Янв-2017 00:00 ]

  

Скачать .torrent

Размер .torrent файла 12 KB


Размер: 316 MB
Хэш (hash) релиза: 8f064bfa9be4254c020408fb7f8481a410d4a1fa
Подписка на обновления:

Торренты, похожие на Волшебные очки скачать торрент

Форум Название Автор Размер S L Добавлен
Российские фильмы до 2016 ·· Волшебные очки (Людмила Ролдугина) [2008, короткометражный, притча, DVDRip] Galfimbul 196100096187 MB 0 0 1382907245

23:54

27-Окт-13

Мультфильмы до 2016 ·· Волшебные очки / Чарівні окуляри (Ефрем Пружанский) [1970, Рисованный мультфильм, DVDRip] RUS + UKR spider91 173187072165 MB 0 0 1363358308

17:38

15-Мар-13

Мультфильмы до 2016 ·· Волшебные очки (Ефрем Пружанский) [1970, мультфильм, DVB-AVC] L 390071988372 MB 0 0 1363123099

00:18

13-Мар-13

Еще никто не оставлял запись к записи скачать торрент Волшебные очки . Будь первым!

!Обратная связь