Скачать через торрент музыку Как сказал Джим According to Jim бесплатно без регистрации torrent

Если у вас наблюдаются проблемы со скриншотами, переходом по ссылками, скачиванием торрентов - проблемы в блокировщике рекламы AdBlock. #хорошегоДня!


Статистика раздачи
Размер:  323 MB   |    Зарегистрирован:  8 месяцев   |    .torrent скачан:  20 раз   |   
Раздают:  1  
   
Загрузка...
 
Автор Сообщение

Galfimbul

avatar Galfimbul


Как сказал Джим / According to Jim

Жанр: Soundtrack
Композитор: Jim Belushi & The Sacred Hearts
Год выпуска диска: 2005
Год выпуска фильма: 2001-2009
Издатель (лейбл): Hollywood Records
Аудио кодек: FLAC (*.flac)
Тип рипа: tracks+.cue
Битрейт аудио: lossless
Продолжительность: 45:43
Источник: сеть, релизер - Celepr0n
Наличие сканов в содержимом раздачи: нет
Треклист:
1. Sweet Home Chicago
2. Cadillac Man
3. Say I Do
4. Have Love Will Travel
5. Three Hundred Pounds Of Joy
6. Jimmie's Theme
7. Angel
8. Mellow Down Easy
9. Girl Watcher
10. Almost
11. Bless My Soul
12. Mambo Miami
13. Viva Las Vegas
14. All She Wants To Do Is Rock
Exact Audio Copy V1.3 from 2. September 2016

EAC extraction logfile from 5. January 2017, 7:53

Jim Belushi And The Sacred Hearts / According To Jim Soundtrack

Used drive : TSSTcorpDVDWBD SH-B123L Adapter: 1 ID: 0

Read mode : SecureUtilize accurate stream : YesDefeat audio cache : YesMake use of C2 pointers : No

Read offset correction : 6Overread into Lead-In and Lead-Out : NoFill up missing offset samples with silence : YesDelete leading and trailing silent blocks : NoNull samples used in CRC calculations : YesUsed interface : Native Win32 interface for Win NT & 2000Gap handling : Appended to previous track

Used output format : User Defined EncoderSelected bitrate : 1024 kBit/sQuality : HighAdd ID3 tag : NoCommand line compressor : E:\Program Files (x86)\Exact Audio Copy\FLAC\FLAC.EXEAdditional command line options : -8 -e -p -V -T "ARTIST=%artist%" -T "TITLE=%title%" -T "ALBUM=%albumtitle%" -T "DATE=%year%" -T "TRACKNUMBER=%tracknr%" -T "GENRE=%genre%" -T "PERFORMER=%albuminterpret%" -T "COMPOSER=%composer%" %haslyrics%--tag-from-file=LYRICS="%lyricsfile%"%haslyrics% -T "ALBUMARTIST=%albumartist%" -T "DISCNUMBER=%cdnumber%" -T "TOTALDISCS=%totalcds%" -T "TOTALTRACKS=%numtracks%" -T "COMMENT=%comment%" %source% -o %dest%

TOC of the extracted CD

Track | Start | Length | Start sector | End sector --------------------------------------------------------- 1 | 0:00.00 | 3:28.35 | 0 | 15634 2 | 3:28.35 | 2:35.49 | 15635 | 27308 3 | 6:04.09 | 2:54.39 | 27309 | 40397 4 | 8:58.48 | 3:25.62 | 40398 | 55834 5 | 12:24.35 | 4:07.30 | 55835 | 74389 6 | 16:31.65 | 3:42.31 | 74390 | 91070 7 | 20:14.21 | 3:11.06 | 91071 | 105401 8 | 23:25.27 | 3:11.58 | 105402 | 119784 9 | 26:37.10 | 3:21.25 | 119785 | 134884 10 | 29:58.35 | 2:44.24 | 134885 | 147208 11 | 32:42.59 | 2:43.69 | 147209 | 159502 12 | 35:26.53 | 3:40.00 | 159503 | 176002 13 | 39:06.53 | 3:52.52 | 176003 | 193454 14 | 42:59.30 | 2:43.70 | 193455 | 205749

Track 1

Filename D:\Musik\Soundtracks\According to Jim\Jim Belushi and the Sacred Hearts - 2005 - According to Jim Soundtrack\01 Sweet Home Chicago.wav

Pre-gap length 0:00:02.00

Peak level 98.8 % Extraction speed 1.7 X Track quality 99.9 % Test CRC 7639E2EE Copy CRC 7639E2EE Track not present in AccurateRip database Copy OK

Track 2

Filename D:\Musik\Soundtracks\According to Jim\Jim Belushi and the Sacred Hearts - 2005 - According to Jim Soundtrack\02 Cadillac Man.wav

Peak level 98.8 % Extraction speed 2.0 X Track quality 100.0 % Test CRC 4583E69F Copy CRC 4583E69F Track not present in AccurateRip database Copy OK

Track 3

Filename D:\Musik\Soundtracks\According to Jim\Jim Belushi and the Sacred Hearts - 2005 - According to Jim Soundtrack\03 Say I Do.wav

Peak level 98.8 % Extraction speed 2.1 X Track quality 100.0 % Test CRC B9FA1016 Copy CRC B9FA1016 Track not present in AccurateRip database Copy OK

Track 4

Filename D:\Musik\Soundtracks\According to Jim\Jim Belushi and the Sacred Hearts - 2005 - According to Jim Soundtrack\04 Have Love Will Travel.wav

Peak level 98.8 % Extraction speed 2.0 X Track quality 99.9 % Test CRC 3C1338C6 Copy CRC 3C1338C6 Track not present in AccurateRip database Copy OK

Track 5

Filename D:\Musik\Soundtracks\According to Jim\Jim Belushi and the Sacred Hearts - 2005 - According to Jim Soundtrack\05 Three Hundred Pounds Of Joy.wav

Pre-gap length 0:00:00.89

Peak level 98.8 % Extraction speed 2.6 X Track quality 100.0 % Test CRC 85C77688 Copy CRC 85C77688 Track not present in AccurateRip database Copy OK

Track 6

Filename D:\Musik\Soundtracks\According to Jim\Jim Belushi and the Sacred Hearts - 2005 - According to Jim Soundtrack\06 Jimmie's Theme.wav

Peak level 98.8 % Extraction speed 2.2 X Track quality 99.9 % Test CRC D0EC4DB8 Copy CRC D0EC4DB8 Track not present in AccurateRip database Copy OK

Track 7

Filename D:\Musik\Soundtracks\According to Jim\Jim Belushi and the Sacred Hearts - 2005 - According to Jim Soundtrack\07 Angel.wav

Peak level 98.8 % Extraction speed 2.8 X Track quality 100.0 % Test CRC 7A270475 Copy CRC 7A270475 Track not present in AccurateRip database Copy OK

Track 8

Filename D:\Musik\Soundtracks\According to Jim\Jim Belushi and the Sacred Hearts - 2005 - According to Jim Soundtrack\08 Mellow Down Easy.wav

Pre-gap length 0:00:01.98

Peak level 98.8 % Extraction speed 2.9 X Track quality 100.0 % Test CRC 743A14F5 Copy CRC 743A14F5 Track not present in AccurateRip database Copy OK

Track 9

Filename D:\Musik\Soundtracks\According to Jim\Jim Belushi and the Sacred Hearts - 2005 - According to Jim Soundtrack\09 Girl Watcher.wav

Pre-gap length 0:00:00.76

Peak level 98.8 % Extraction speed 3.0 X Track quality 100.0 % Test CRC 04CE5BE0 Copy CRC 04CE5BE0 Track not present in AccurateRip database Copy OK

Track 10

Filename D:\Musik\Soundtracks\According to Jim\Jim Belushi and the Sacred Hearts - 2005 - According to Jim Soundtrack\10 Almost.wav

Pre-gap length 0:00:00.33

Peak level 98.8 % Extraction speed 2.2 X Track quality 99.9 % Test CRC 65166DE2 Copy CRC 65166DE2 Track not present in AccurateRip database Copy OK

Track 11

Filename D:\Musik\Soundtracks\According to Jim\Jim Belushi and the Sacred Hearts - 2005 - According to Jim Soundtrack\11 Bless My Soul.wav

Pre-gap length 0:00:00.17

Peak level 98.8 % Extraction speed 3.1 X Track quality 100.0 % Test CRC C6627A7E Copy CRC C6627A7E Track not present in AccurateRip database Copy OK

Track 12

Filename D:\Musik\Soundtracks\According to Jim\Jim Belushi and the Sacred Hearts - 2005 - According to Jim Soundtrack\12 Mambo Miami.wav

Peak level 98.8 % Extraction speed 3.4 X Track quality 100.0 % Test CRC 23EBBD0A Copy CRC 23EBBD0A Track not present in AccurateRip database Copy OK

Track 13

Filename D:\Musik\Soundtracks\According to Jim\Jim Belushi and the Sacred Hearts - 2005 - According to Jim Soundtrack\13 Viva Las Vegas.wav

Pre-gap length 0:00:00.46

Peak level 98.8 % Extraction speed 3.6 X Track quality 100.0 % Test CRC 2E44D347 Copy CRC 2E44D347 Track not present in AccurateRip database Copy OK

Track 14

Filename D:\Musik\Soundtracks\According to Jim\Jim Belushi and the Sacred Hearts - 2005 - According to Jim Soundtrack\14 All She Wants To Do Is Rock.wav

Pre-gap length 0:00:01.46

Peak level 98.8 % Extraction speed 3.4 X Track quality 100.0 % Test CRC 32703CA4 Copy CRC 32703CA4 Track not present in AccurateRip database Copy OK

None of the tracks are present in the AccurateRip database

No errors occurred

End of status report

---- CUETools DB Plugin V2.1.6

[CTDB TOCID: NEakKzjsoOhUoQ2Jl.99RRFniAI-] disk not present in databaseSubmit result: NEakKzjsoOhUoQ2Jl.99RRFniAI- has been uploaded

==== Log checksum 298BF1B964FBA077FA483E9791D79EFEEF98BAD7E72E38704C2AF37931F515AC ====
REM GENRE SoundtrackREM DATE 2005REM DISCID BC0AB70EREM COMMENT "ExactAudioCopy v1.3"CATALOG 0720616251329PERFORMER "Jim Belushi And The Sacred Hearts"TITLE "According To Jim Soundtrack"REM COMPOSER ""FILE "01 Sweet Home Chicago.wav" WAVE TRACK 01 AUDIO TITLE "Sweet Home Chicago" PERFORMER "Jim Belushi And The Sacred Hearts" REM COMPOSER "" ISRC USHR10521935 INDEX 01 00:00:00FILE "02 Cadillac Man.wav" WAVE TRACK 02 AUDIO TITLE "Cadillac Man" PERFORMER "Jim Belushi And The Sacred Hearts" REM COMPOSER "" ISRC USHR10521936 INDEX 01 00:00:00FILE "03 Say I Do.wav" WAVE TRACK 03 AUDIO TITLE "Say I Do" PERFORMER "Jim Belushi And The Sacred Hearts" REM COMPOSER "" ISRC USHR10521937 INDEX 01 00:00:00FILE "04 Have Love Will Travel.wav" WAVE TRACK 04 AUDIO TITLE "Have Love Will Travel" PERFORMER "Jim Belushi And The Sacred Hearts" REM COMPOSER "" ISRC USHR10521938 INDEX 01 00:00:00 TRACK 05 AUDIO TITLE "Three Hundred Pounds Of Joy" PERFORMER "Jim Belushi And The Sacred Hearts" REM COMPOSER "" ISRC USHR10521944 INDEX 00 03:24:70FILE "05 Three Hundred Pounds Of Joy.wav" WAVE INDEX 01 00:00:00FILE "06 Jimmie's Theme.wav" WAVE TRACK 06 AUDIO TITLE "Jimmie's Theme" PERFORMER "Jim Belushi And The Sacred Hearts" REM COMPOSER "" ISRC USHR10521939 INDEX 01 00:00:00FILE "07 Angel.wav" WAVE TRACK 07 AUDIO TITLE "Angel" PERFORMER "Jim Belushi And The Sacred Hearts" REM COMPOSER "" ISRC USHR10521940 INDEX 01 00:00:00 TRACK 08 AUDIO TITLE "Mellow Down Easy" PERFORMER "Jim Belushi And The Sacred Hearts" REM COMPOSER "" ISRC USHR10521941 INDEX 00 03:09:07FILE "08 Mellow Down Easy.wav" WAVE INDEX 01 00:00:00 TRACK 09 AUDIO TITLE "Girl Watcher" PERFORMER "Jim Belushi And The Sacred Hearts" REM COMPOSER "" ISRC USHR10521942 INDEX 00 03:11:01FILE "09 Girl Watcher.wav" WAVE INDEX 01 00:00:00 TRACK 10 AUDIO TITLE "Almost" PERFORMER "Jim Belushi And The Sacred Hearts" REM COMPOSER "" ISRC USHR10521943 INDEX 00 03:21:00FILE "10 Almost.wav" WAVE INDEX 01 00:00:00 TRACK 11 AUDIO TITLE "Bless My Soul" PERFORMER "Jim Belushi And The Sacred Hearts" REM COMPOSER "" ISRC USHR10521945 INDEX 00 02:44:11FILE "11 Bless My Soul.wav" WAVE INDEX 01 00:00:00FILE "12 Mambo Miami.wav" WAVE TRACK 12 AUDIO TITLE "Mambo Miami" PERFORMER "Jim Belushi And The Sacred Hearts" REM COMPOSER "" ISRC USHR10521945 INDEX 01 00:00:00 TRACK 13 AUDIO TITLE "Viva Las Vegas" PERFORMER "Jim Belushi And The Sacred Hearts" REM COMPOSER "" ISRC USHR10521947 INDEX 00 03:39:40FILE "13 Viva Las Vegas.wav" WAVE INDEX 01 00:00:00 TRACK 14 AUDIO TITLE "All She Wants To Do Is Rock" PERFORMER "Jim Belushi And The Sacred Hearts" REM COMPOSER "" ISRC USHR10521948 INDEX 00 03:51:17FILE "14 All She Wants To Do Is Rock.wav" WAVE INDEX 01 00:00:00
AUDIOCHECKER v2.0 beta (build 457) - by Dester - opdester@freemail.hu~~~~~~~~~~~~~~~~~~~~~~~~~~~~~~~~~~-=== DO NOT EDIT THIS FILE! ===-

Path: ...\Jim Belushi and the Sacred Hearts - According to Jim (2005 Soundtrack)

01 -=- 01 Sweet Home Chicago.flac -=- CDDA (100%)02 -=- 02 Cadillac Man.flac -=- CDDA (100%)03 -=- 03 Say I Do.flac -=- CDDA (100%)04 -=- 04 Have Love Will Travel.flac -=- CDDA (100%)05 -=- 05 Three Hundred Pounds Of Joy.flac -=- CDDA (100%)06 -=- 06 Jimmie's Theme.flac -=- CDDA (100%)07 -=- 07 Angel.flac -=- CDDA (100%)08 -=- 08 Mellow Down Easy.flac -=- CDDA (100%)09 -=- 09 Girl Watcher.flac -=- CDDA (100%)10 -=- 10 Almost.flac -=- CDDA (100%)11 -=- 11 Bless My Soul.flac -=- CDDA (100%)12 -=- 12 Mambo Miami.flac -=- CDDA (100%)13 -=- 13 Viva Las Vegas.flac -=- CDDA (100%)14 -=- 14 All She Wants To Do Is Rock.flac -=- CDDA (100%)

Summary 100,00% CDDA

155055908


Трекер:  [ 09-Янв-2017 20:00 ]

  

Скачать .torrent

Размер .torrent файла 14 KB


Размер: 323 MB
Хэш (hash) релиза: a8146a19330690df1ff06ccc1ab4c86c0225638d

Еще никто не оставлял запись к записи скачать торрент Как сказал Джим According to Jim . Будь первым!

!Обратная связь