[iPad] Snowden torrent

, , - AdBlock. #!


2.31 GB   |    :  8    |    .torrent :  30    |   
1  
   
...
 

Galfimbul

avatar Galfimbul


<span class="post-font-serif1"> / Snowden
,

6.954 / 10 7.40 / 10
: 2016
:
: , ,
: 02:14:49

: (iTunes)
:
C: ,
:
: , ,
: , , -
:
: ,
: , , Β
: ,
: -, , , , , , , , ,

: $40 000 000
: $21 587 519
: + $9 759 150 = $31 346 669
: $1 186 410

: 21 2016
(): 15 2016,

: . . , , , , , , , . , : , ,
: BDRemux
: BDRip
: SD (576p)
: M4V
: H.264, 1024x432, 2.40:1, 2 200 Kbps, 23.976 (24000/1001) fps

1: / (iTunes), AAC / 2.0 / 128 Kbps / 48.0 KHz
2: / , AAC / 2.0 / 128 Kbps / 48.0 KHz

1:
2:



</span>
Sort Name: Snowden
XID: Apple:vendor_id:2016-843831
contentID: 1153715896
Copyright: 2016 Open Road Films. All Rights Reserved.
Screenwriters: , ,
Producers: , , -
Director:
Cast: -, , , , , , , , , , , , , , ϸ
Studio: Open Road Films
Rating: 5
Long Description: . . , , , , , , , . , : , , ...
Description: . . , , , , , , , . , : , , ...
Release Date: 2016-07-21T08:00:00Z
Genre: Drama
Artist: Oliver Stone
Name: Snowden
General
Complete name : /Users/imac/HandBrake/Snowden.(SD).(pk).m4v
Format : MPEG-4
Codec ID : M4V (M4V /M4A /mp42/isom)
File size : 2.31 GiB
Duration : 2h 14mn
Overall bit rate mode : Variable
Overall bit rate : 2 458 Kbps
Movie name : Snowden
Performer : Oliver Stone
Director :
Actor : - / / / / / / / / / / / / / / ϸ
Screenplay by : / /
Producer : / / -
Production studio : Open Road Films
Genre : Drama
ContentType : Short Film
Description : . . , , , , , , , . , : , , ...
Recorded date : UTC 2016-07-21 08:00:00
Encoded date : UTC 2017-01-09 10:17:56
Tagged date : UTC 2017-01-09 10:21:58
Copyright : 2016 Open Road Films. All Rights Reserved.
Cover : Yes
Rating : None
Title/Sort : Snowden
LongDescription : . . , , , , , , , . , : , , ...
AppleStoreCatalogID : 1153715896
Vendor : Apple:vendor_id:2016-843831
ContentRating : mpaa|R|400|

Video #1
ID : 1
Format : AVC
Format/Info : Advanced Video Codec
Format profile : High@L3.1
Format settings, CABAC : Yes
Format settings, ReFrames : 9 frames
Codec ID : avc1
Codec ID/Info : Advanced Video Coding
Duration : 2h 14mn
Source duration : 2h 14mn
Bit rate : 2 200 Kbps
Width : 1 024 pixels
Height : 432 pixels
Display aspect ratio : 2.40:1
Frame rate mode : Variable
Frame rate : 23.976 (24000/1001) fps
Minimum frame rate : 23.974 fps
Maximum frame rate : 23.981 fps
Color space : YUV
Chroma subsampling : 4:2:0
Bit depth : 8 bits
Scan type : Progressive
Bits/(Pixel*Frame) : 0.207
Stream size : 2.07 GiB (89%)
Source stream size : 2.07 GiB (89%)
Title : Main Program
Writing library : x264 core 142 r2479 dd79a61
Encoding settings : cabac=1 / ref=9 / deblock=1:0:0 / analyse=0x3:0x113 / me=umh / subme=9 / psy=1 / psy_rd=1.00:0.00 / mixed_ref=1 / me_range=32 / chroma_me=1 / trellis=1 / 8x8dct=1 / cqm=0 / deadzone=21,11 / fast_pskip=1 / chroma_qp_offset=-2 / threads=36 / lookahead_threads=3 / sliced_threads=0 / nr=0 / decimate=1 / interlaced=0 / bluray_compat=0 / constrained_intra=0 / bframes=6 / b_pyramid=2 / b_adapt=2 / b_bias=0 / direct=1 / weightb=1 / open_gop=0 / weightp=2 / keyint=240 / keyint_min=24 / scenecut=40 / intra_refresh=0 / rc_lookahead=40 / rc=2pass / mbtree=1 / bitrate=2200 / ratetol=1.0 / qcomp=0.60 / qpmin=0 / qpmax=69 / qpstep=4 / cplxblur=20.0 / qblur=0.5 / ip_ratio=1.40 / aq=1:1.00
Language : English
Encoded date : UTC 2017-01-09 10:17:56
Tagged date : UTC 2017-01-09 10:18:03
Color range : Limited
Color primaries : BT.709
Transfer characteristics : BT.709
Matrix coefficients : BT.709
Menus : 6,7

Video #2
ID : 7
Format : JPEG
Codec ID : jpeg
Duration : 2h 14mn
Bit rate mode : Variable
Bit rate : 823 bps
Width : 640 pixels
Height : 270 pixels
Display aspect ratio : 2.40:1
Frame rate mode : Variable
Frame rate : 0.002 fps
Minimum frame rate : 0.001 fps
Maximum frame rate : 0.005 fps
Color space : YUV
Chroma subsampling : 4:2:0
Bit depth : 8 bits
Compression mode : Lossy
Bits/(Pixel*Frame) : 2.381
Stream size : 1 005 KiB (0%)
Title : Chapter Images
Language : English
Default : No
Encoded date : UTC 2017-01-09 10:18:13
Tagged date : UTC 2017-01-09 10:18:13
Menu For : 1

Audio #1
ID : 2
Format : AAC
Format/Info : Advanced Audio Codec
Format profile : LC
Codec ID : 40
Duration : 2h 14mn
Bit rate mode : Variable
Bit rate : 125 Kbps
Maximum bit rate : 183 Kbps
Channel(s) : 2 channels
Channel positions : Front: L R
Sampling rate : 48.0 KHz
Frame rate : 46.875 fps (1024 spf)
Compression mode : Lossy
Stream size : 121 MiB (5%)
Title : Russian Stereo
Language : Russian
Default : Yes
Alternate group : 1
Encoded date : UTC 2017-01-09 10:17:56
Tagged date : UTC 2017-01-09 10:18:08

Audio #2
ID : 3
Format : AAC
Format/Info : Advanced Audio Codec
Format profile : LC
Codec ID : 40
Duration : 2h 14mn
Bit rate mode : Variable
Bit rate : 126 Kbps
Maximum bit rate : 195 Kbps
Channel(s) : 2 channels
Channel positions : Front: L R
Sampling rate : 48.0 KHz
Frame rate : 46.875 fps (1024 spf)
Compression mode : Lossy
Stream size : 121 MiB (5%)
Title : English Stereo
Language : English
Default : No
Alternate group : 1
Encoded date : UTC 2017-01-09 10:17:56
Tagged date : UTC 2017-01-09 10:18:08

Text #1
ID : 4
Format : Timed Text
Muxing mode : sbtl
Codec ID : tx3g
Duration : 2h 10mn
Bit rate mode : Variable
Bit rate : 108 bps
Stream size : 103 KiB (0%)
Title : Russian full
Language : Russian
Default : Yes
Forced : No
Alternate group : 2
Encoded date : UTC 2017-01-09 10:17:56
Tagged date : UTC 2017-01-09 10:18:03

Text #2
ID : 5
Format : Timed Text
Muxing mode : sbtl
Codec ID : tx3g
Duration : 2h 10mn
Bit rate mode : Variable
Bit rate : 98 bps
Stream size : 94.1 KiB (0%)
Title : English fhll
Language : English
Default : No
Forced : No
Alternate group : 2
Encoded date : UTC 2017-01-09 10:17:56
Tagged date : UTC 2017-01-09 10:18:03

Menu #1
00:00:00.000 : Chapter 1
00:07:42.462 : Chapter 2
00:15:50.074 : Chapter 3
00:20:06.122 : Chapter 4
00:26:32.090 : Chapter 5
00:30:11.059 : Chapter 6
00:35:29.419 : Chapter 7
00:41:42.959 : Chapter 8
00:51:45.853 : Chapter 9
00:59:14.384 : Chapter 10
01:04:44.506 : Chapter 11
01:12:47.154 : Chapter 12
01:18:07.558 : Chapter 13
01:25:11.481 : Chapter 14
01:30:30.800 : Chapter 15
01:38:11.511 : Chapter 16
01:50:06.225 : Chapter 17
01:57:00.055 : Chapter 18
02:03:22.437 : Chapter 19
02:07:48.995 : Chapter 20

Menu #2
ID : 6
Codec ID : text
Duration : 2h 14mn
Language : English
Encoded date : UTC 2017-01-09 10:18:08
Tagged date : UTC 2017-01-09 10:18:08
Menu For : 1
00:00:00.000 : Chapter 1
00:07:42.462 : Chapter 2
00:15:50.074 : Chapter 3
00:20:06.122 : Chapter 4
00:26:32.090 : Chapter 5
00:30:11.059 : Chapter 6
00:35:29.419 : Chapter 7
00:41:42.959 : Chapter 8
00:51:45.853 : Chapter 9
00:59:14.384 : Chapter 10
01:04:44.506 : Chapter 11
01:12:47.154 : Chapter 12
01:18:07.558 : Chapter 13
01:25:11.481 : Chapter 14
01:30:30.800 : Chapter 15
01:38:11.511 : Chapter 16
01:50:06.225 : Chapter 17
01:57:00.055 : Chapter 18
02:03:22.437 : Chapter 19
02:07:48.995 : Chapter 20
Bit rate mode : VBR
x264 [info]: frame I:1734 Avg QP:15.04 size: 82042
x264 [info]: frame P:44261 Avg QP:17.91 size: 24542
x264 [info]: frame B:147949 Avg QP:20.36 size: 6719
x264 [info]: consecutive B-frames: 2.6% 2.9% 9.7% 22.0% 18.4% 37.1% 7.2%
x264 [info]: mb I I16..4: 12.3% 63.9% 23.8%
x264 [info]: mb P I16..4: 1.3% 7.7% 2.1% P16..4: 38.1% 25.2% 16.3% 0.0% 0.0% skip: 9.2%
x264 [info]: mb B I16..4: 0.1% 1.3% 0.2% B16..8: 41.8% 8.6% 2.6% direct: 4.0% skip:41.4% L0:44.1% L1:46.0% BI: 9.9%
x264 [info]: 8x8 transform intra:70.7% inter:70.0%
x264 [info]: coded y,uvDC,uvAC intra: 87.1% 85.4% 68.5% inter: 24.5% 25.2% 7.2%
x264 [info]: i16 v,h,dc,p: 28% 17% 11% 45%
x264 [info]: i8 v,h,dc,ddl,ddr,vr,hd,vl,hu: 10% 8% 6% 10% 15% 15% 14% 12% 12%
x264 [info]: i4 v,h,dc,ddl,ddr,vr,hd,vl,hu: 10% 10% 3% 9% 15% 14% 14% 12% 13%
x264 [info]: i8c dc,h,v,p: 39% 23% 19% 18%
x264 [info]: Weighted P-Frames: Y:3.7% UV:2.0%
x264 [info]: ref P L0: 50.2% 12.3% 15.6% 6.6% 4.9% 3.5% 2.9% 1.8% 1.8% 0.3% 0.0%
x264 [info]: ref B L0: 73.4% 12.1% 6.2% 3.1% 2.3% 1.7% 0.9% 0.3%
x264 [info]: ref B L1: 91.0% 9.0%
x264 [info]: kb/s:2198.07

<span class="post-font-serif1">
Apple TV, iPad, iPhone, <a href="www.apple.com/ipodtouch/" class="postLink">iPod Touch</a>.
Windows VLC media player</span>

 ·  , , FAQ-
:  [ 09--2017 13:00 ]

  

.torrent

.torrent 23 KB


: 2.31 GB
(hash) : c2224174a73774a9cd7cb7828e10d09e38dd9046
··
...

[iPad] Snowden . !

!