Скачать через торрент Дэми-тян хочет рассказать Demi-chan wa Kataritai бесплатно Аниме Все серии на русском torrent

Если у вас наблюдаются проблемы со скриншотами, переходом по ссылками, скачиванием торрентов - проблемы в блокировщике рекламы AdBlock. #хорошегоДня!


Статистика раздачи
Размер:  307 MB   |    Зарегистрирован:  8 месяцев   |    .torrent скачан:  17 раз   |   
Раздают:  1  
   
Загрузка...
 
Автор Сообщение

Galfimbul

avatar Galfimbul


Дэми-тян хочет рассказать / Demi-chan wa Kataritai / Interviews with Monster Girls
Страна: Япония
Год выпуска: 2017 г.
Тип: TV
Жанр: Комедия, фэнтези, школа
Продолжительность: 12 эп. по 25 мин
Русские субтитры: SovetRomantica
Переводчик: 3viaL
Редактура: 3viaL
Режиссер: Андо Рё

Студия:

Описание: Люди неохотно принимают в свое общество тех, кто от них отличается, причем не столь важно, в чем именно состоит отличие. Причиной разногласий может служить цвет кожи или волос, одежда или фигура – дети и взрослые бдительно следят, чтобы тому, кто слишком сильно выделяется, жизнь медом не казалась. А уж в старшей школе, где каждый ищет себя и готовится к ответственной взрослой жизни, отличаться от окружающих тем более опасно. Особенно если отличие это не поверхностное, а вполне ощутимое – скажем, если ты и вовсе не человек.

Наши главные героини относятся именно к этой группе. Они принадлежат к популяции сверхъестественных существ, которые сначала маскировались под людей, потом существовали отдельно от них, но не так давно были приняты обществом. Будучи вампиром, дюллаханом и суккубом, девушки не очень удачно вписываются в коллектив сверстников, которые относятся к ним настороженно. Впрочем, с недавних пор учитель биологии интересуется жизнями сверхъестественных учениц и прилагает все усилия, чтобы их жизнь в стенах школы стала веселее.

<span class="post-font-sans1">Качество: HDTVRip | Равка: Leopard-Raws Формат: mp4 | Тип Видео: без хардсаба
Видео: х264, 8 bits, 1280x720, 1592 kbps, 23.976 fps, (16:9)
JP - AAC, 192 kbps, 48.0 KHz, 2 ch Язык Японский</span>
01. Takahashi Tetsuo Wants an Interview
Общее
Полное имя : D:\[Leopard-Raws]\[Leopard-Raws] Demi-chan wa Kataritai\[Leopard-Raws] Demi-chan wa Kataritai - 01 RAW (BS11 1280x720 x264 AAC).mp4
Формат : MPEG-4
Профиль формата : Base Media
Идентификатор кодека : isom
Размер файла : 307 Мбайт
Продолжительность : 23 м.
Режим общего битрейта : Переменный
Общий поток : 1788 Кбит/сек
Дата кодирования : UTC 2017-01-08 07:38:39
Дата пометки : UTC 2017-01-08 07:38:39

Видео
Идентификатор : 1
Формат : AVC
Формат/Информация : Advanced Video Codec
Профиль формата : High@L4.1
Параметр CABAC формата : Да
Параметр ReFrames формата : 4 кадра
Идентификатор кодека : avc1
Идентификатор кодека/Информация : Advanced Video Coding
Продолжительность : 23 м.
Битрейт : 1592 Кбит/сек
Максимальный битрейт : 14,9 Мбит/сек
Ширина : 1280 пикселей
Высота : 720 пикселей
Соотношение сторон : 16:9
Режим частоты кадров : Постоянный
Частота кадров : 23,976 кадра/сек
Цветовое пространство : YUV
Субдискретизация насыщенности : 4:2:0
Битовая глубина : 8 бит
Тип развёртки : Прогрессивная
Бит/(Пиксели*Кадры) : 0.072
Размер потока : 273 Мбайт (89%)
Заголовок : 264:fps=23.976@GPAC0.5.2-DEV-rev376-g5eeb74d-master
Библиотека кодирования : x264 core 129 r2245+729M 1a52e03
Настройки программы : cabac=1 / ref=4 / deblock=1:1:-1 / analyse=0x3:0x113 / me=umh / subme=9 / psy=1 / fade_compensate=0.00 / psy_rd=1.00:0.00 / mixed_ref=1 / me_range=24 / chroma_me=1 / trellis=2 / 8x8dct=1 / cqm=0 / deadzone=21,11 / fast_pskip=1 / chroma_qp_offset=-2 / threads=8 / lookahead_threads=1 / sliced_threads=0 / nr=0 / decimate=1 / interlaced=0 / bluray_compat=0 / constrained_intra=0 / fgo=0 / bframes=9 / b_pyramid=2 / b_adapt=2 / b_bias=0 / direct=1 / weightb=1 / open_gop=0 / weightp=2 / keyint=240 / keyint_min=24 / scenecut=40 / intra_refresh=0 / rc=crf / mbtree=0 / crf=18.0 / qcomp=0.72 / qpmin=0 / qpmax=69 / qpstep=4 / ip_ratio=1.40 / pb_ratio=1.30 / aq=1:0.85
Дата кодирования : UTC 2017-01-08 07:38:39
Дата пометки : UTC 2017-01-08 07:38:48
Основные цвета : BT.709
Характеристики трансфера : BT.709
Коэффициенты матрицы : BT.709

Аудио
Идентификатор : 2
Формат : AAC
Формат/Информация : Advanced Audio Codec
Профиль формата : LC
Идентификатор кодека : 40
Продолжительность : 23 м.
Вид битрейта : Переменный
Битрейт : 192 Кбит/сек
Максимальный битрейт : 227 Кбит/сек
Каналы : 2 канала
Расположение каналов : Front: L R
Частота : 48,0 КГц
Метод сжатия : С потерями
Размер потока : 32,9 Мбайт (11%)
Язык : Japanese
Дата кодирования : UTC 2017-01-07 21:39:12
Дата пометки : UTC 2017-01-08 07:38:48


Трекер:  [ 09-Янв-2017 01:00 ]

  

Скачать .torrent

Размер .torrent файла 12 KB


Размер: 307 MB
Хэш (hash) релиза: a98a7d7b4913f64b9c66ef33c7c41f2c877fb171
Подписка на обновления:

Торренты, похожие на Дэми-тян хочет рассказать Demi-chan wa Kataritai скачать торрент

Форум Название Автор Размер S L Добавлен
Аниме | HD Rips ·· Дэми-тян хочет рассказать / Demi-chan wa Kataritai / Interviews with Monster Girls (Андо Рё) [TV] [11 из 12] [Без хардсаба] [JAP+SUB] [2017, комедия, фэнтези, школа HDTVRip] [720p1 Galfimbul 34358718513.2 GB 0 0 1490256631

11:10

23-Мар-17

Еще никто не оставлял запись к записи скачать торрент Дэми-тян хочет рассказать Demi-chan wa Kataritai . Будь первым!

!Обратная связь