Скачать через торрент [ATV3] Млечный путь бесплатно русская версия torrent активатор

Статистика раздачи
Размер:  2.57 GB   |    Зарегистрирован:  1 месяц 12 дней   |    .torrent скачан:  25 раз   |   
Раздают:  2  
   
 
Автор Сообщение

Galfimbul

avatar Galfimbul


<span class="post-font-serif1">Млечный путь
-

5.253 / 10 / 10
Год выпуска: 2015
Страна: Россия
Жанр: Комедия
Продолжительность: 01:29:44

Перевод: Не требуется
Оригинальная аудиодорожка: Есть
Cубтитры: Нет
Режиссёр: Анна Матисон
Сценарий: Анна Матисон, Тимур Эзугбая
Продюсер: Алексей Кублицкий, Мария Карнеева
Оператор: Максим Шинкоренко
Художник: Сергей Воробьев, Сергей Онипенко, Северина Недельчук
Монтаж: Иван Лисичкин
В ролях: Сергей Безруков, Марина Александрова, Владимир Меньшов, Анастасия Безрукова, Петр Терещенко, Владимир Войтюк, Валентин Гафт, Денис Мацуев, Дмитрий Соколов, Бэлик Дамбаев

Сборы в России: $855 727

Премьера (РФ): 1 января 2016, «Двадцатый Век Фокс СНГ»

Описание: В браке Андрея и Нади что-то сломалось. Он отправляется жить в Москву, она с детьми остается в Иркутске. В канун Нового Года семья снова собирается вместе, но, похоже, в последний раз. Слово «развод» звучит вполне определенно. 1-го января, казалось бы, всё уже решено, но целая цепочка событий, — смешных, грустных, иногда даже странных и необъяснимых — будто удерживает семью от неправильного шага. Все они потеряются и найдут друг друга в эту волшебную ночь на острове Ольхон и поймут, что прошлые обиды легко забыть, а в жизни есть нечто куда более важное.
Качество исходника: WEB-Rip 1080p (BlueBird)
Качество: WEB-Rip
Тип: HD (1080p)
Контейнер: M4V
Видео: H.264, 1920x800, 2.40:1, 3 940 Kbps, 25.000 fps

Аудио: Русский/Оригинальная дорожка , AAC / 2.0 / 160 Kbps / 44.1 KHz



</span>
Sort Name: Млечный путь
XID: Apple:vendor_id:2015-893457
contentID: 893457
Screenwriters: Анна Матисон, Тимур Эзугбая
Producers: Алексей Кублицкий, Мария Карнеева
Director: Анна Матисон
Cast: Сергей Безруков, Марина Александрова, Владимир Меньшов, Анастасия Безрукова, Петр Терещенко, Владимир Войтюк, Валентин Гафт, Денис Мацуев, Дмитрий Соколов, Бэлик Дамбаев
Studio: Production Value WorldWide
Long Description: В браке Андрея и Нади что-то сломалось. Он отправляется жить в Москву, она с детьми остается в Иркутске. В канун Нового Года семья снова собирается вместе, но, похоже, в последний раз. Слово "развод" звучит вполне определенно. 1-го января, казалось бы, всё уже решено, но целая цепочка событий, - смешных, грустных, иногда даже странных и необъяснимых - будто удерживает семью от неправильного шага. Все они потеряются и найдут друг друга в эту волшебную ночь на острове Ольхон и поймут, что прошлые обиды легко забыть, а в жизни есть нечто куда более важное.
Description: В браке Андрея и Нади что-то сломалось. Он отправляется жить в Москву, она с детьми остается в Иркутске. В канун Нового Года семья снова собирается вместе, но, похоже, в последний раз. Слово "развод" звучит вполне определенно. 1-го января, казалось бы, всё уже решено, но целая цепочка событий, - смешных, грустных, иногда даже странных и необъяснимых - будто удерживает семью от неправильного шага. Все они потеряются и найдут друг друга в эту волшебную ночь на острове Ольхон и поймут, что прошлые обиды легко забыть, а в жизни есть нечто куда более важное.
Release Date: 2015-01-01T08:00:00Z
Artist: Анна Матисон
Name: Млечный путь
General
Complete name : /Users/imac/HandBrake/Milkyway.WEBRip.1080p.m4v
Format : MPEG-4
Codec ID : M4V
File size : 2.57 GiB
Duration : 1h 29mn
Overall bit rate mode : Variable
Overall bit rate : 4 100 Kbps
Movie name : Млечный путь
Performer : Анна Матисон
Director : Анна Матисон
Actor : Сергей Безруков / Марина Александрова / Владимир Меньшов / Анастасия Безрукова / Петр Терещенко / Владимир Войтюк / Валентин Гафт / Денис Мацуев / Дмитрий Соколов / Бэлик Дамбаев
Screenplay by : Анна Матисон / Тимур Эзугбая
Producer : Алексей Кублицкий / Мария Карнеева
Production studio : Production Value WorldWide
ContentType : Short Film
Description : В браке Андрея и Нади что-то сломалось. Он отправляется жить в Москву, она с детьми остается в Иркутске. В канун Нового Года семья снова собирается вместе, но, похоже, в последний раз. Слово "развод" звучит вполне определенно. 1-го января, казалось бы, всё уже решено, но целая цепочка событий, - смешных, грустных, иногда даже странных и необъяснимых - будто удерживает семью от неправильного шага. Все они потеряются и найдут друг друга в эту волшебную ночь на острове Ольхон и поймут, что прошлые обиды легко забыть, а в жизни есть нечто куда более важное.
Recorded date : UTC 2015-01-01 08:00:00
Encoded date : UTC 2017-01-08 11:16:57
Tagged date : UTC 2017-01-08 11:17:26
Cover : Yes
Rating : None
Title/Sort : Млечный путь
LongDescription : В браке Андрея и Нади что-то сломалось. Он отправляется жить в Москву, она с детьми остается в Иркутске. В канун Нового Года семья снова собирается вместе, но, похоже, в последний раз. Слово "развод" звучит вполне определенно. 1-го января, казалось бы, всё уже решено, но целая цепочка событий, - смешных, грустных, иногда даже странных и необъяснимых - будто удерживает семью от неправильного шага. Все они потеряются и найдут друг друга в эту волшебную ночь на острове Ольхон и поймут, что прошлые обиды легко забыть, а в жизни есть нечто куда более важное.
AppleStoreCatalogID : 893457
Vendor : Apple:vendor_id:2015-893457

Video
ID : 1
Format : AVC
Format/Info : Advanced Video Codec
Format profile : High@L4
Format settings, CABAC : Yes
Format settings, ReFrames : 3 frames
Format settings, GOP : M=1, N=75
Codec ID : avc1
Codec ID/Info : Advanced Video Coding
Duration : 1h 29mn
Bit rate mode : Variable
Bit rate : 3 940 Kbps
Maximum bit rate : 4 999 Kbps
Width : 1 920 pixels
Original width : 1 912 pixels
Height : 800 pixels
Display aspect ratio : 2.40:1
Original display aspect ratio : 2.40:1
Frame rate mode : Constant
Frame rate : 25.000 fps
Color space : YUV
Chroma subsampling : 4:2:0
Bit depth : 8 bits
Scan type : Progressive
Bits/(Pixel*Frame) : 0.103
Stream size : 2.47 GiB (96%)
Title : Main Program
Language : Russian
Encoded date : UTC 2017-01-08 11:16:57
Tagged date : UTC 2017-01-08 11:17:01

Audio
ID : 2
Format : AAC
Format/Info : Advanced Audio Codec
Format profile : LC
Codec ID : 40
Duration : 1h 29mn
Bit rate mode : Variable
Bit rate : 157 Kbps
Maximum bit rate : 251 Kbps
Channel(s) : 2 channels
Channel positions : Front: L R
Sampling rate : 44.1 KHz
Compression mode : Lossy
Stream size : 101 MiB (4%)
Title : Russian Stereo
Language : Russian
Encoded date : UTC 2017-01-08 11:16:57
Tagged date : UTC 2017-01-08 11:17:03

<span class="post-font-serif1">
Релиз подготовлен для просмотра на Apple TV, iPad, iPhone, <a href="www.apple.com/ipodtouch/" class="postLink">iPod Touch</a>.
Для просмотра данного релиза на компьютере с ОС Windows рекомендуется использовать VLC media player</span>

Трекер:  [ 08-Янв-2017 14:00 ]

  

Скачать .torrent

Размер .torrent файла 26 KB


Размер: 2.57 GB
Хэш (hash) релиза: 72f21654203c4d68124fe74669484a072c904449

Торренты, похожие на [ATV3] Млечный путь скачать торрент

Форум Название Автор Размер S L Добавлен
Видео (iPhone/iPod Touch/iPad) ·· [ATV3] По млечному пути / On the Milky Road (Эмир Кустурица / Emir Kusturica ) [2016, США, Драма, WEB-DL, HD (1080p)] DUB Galfimbul 46583946074.34 GB 0 0 1485691219

15:00

29-Янв-17

Еще никто не оставлял запись к записи скачать торрент [ATV3] Млечный путь . Будь первым!

!Обратная связь