Скачать через торрент Адепт Святого Знака Seikon no Qwaser бесплатно Аниме Все серии на русском torrent

Если у вас наблюдаются проблемы со скриншотами, переходом по ссылками, скачиванием торрентов - проблемы в блокировщике рекламы AdBlock. #хорошегоДня!


Статистика раздачи
Размер:  109.79 GB   |    Зарегистрирован:  8 месяцев   |    .torrent скачан:  21 раз   |   
Раздают:  1  
   
Загрузка...
 
Автор Сообщение

Galfimbul

avatar Galfimbul


Адепт Святого Знака / Seikon no Qwaser

Год выпуска: 2010
Страна: Япония
Жанр: приключения, мистика, этти
Тип: TV
Продолжительность: 24 эп. по 25 мин, 16 спешалов по 2 мин.
Озвучка: нет

Русские субтитры: есть (отдельным файлом, формат .ass)
Перевод:
<ol class="post-ul">
chainsaws, Obelikx, Sakurachii, VanTuz [KBM TeaM]
</ol>
Хардсаб: Нет
Режиссер: Канэко Хираку
Студия: Hoods Entertainment

Описание: В далекой Японии есть все – даже православная гимназия Св. Михайлова, в которой и происходит действие сериала. С виду тихая частная школа становится ареной борьбы между «верными» и еретиками, что ищут чудотворную икону, якобы дающую ключ к величайшим загадкам мироздания. С обеих сторон в конфликте участвуют «квейзеры» - таинственные адепты алхимии, которые владеют каким-либо природным элементом и используют его в бою. И, что самое интересное, поддерживать силы боевые маги могут, лишь получая Сому – напиток, очень похожий на женское молоко, что чудесным образом появляется у местных школьниц…

Отступники быстро бы сделали свое черное дело, если бы не явившийся из заснеженной России Саша Хэлл – молодой адепт со стигматом в виде 8-конечного креста на лице. Объединившись с носительницей тайны Томо Яманобэ и ее подругой Мафую Орибэ, Александр начинает свой священный поход за очищение школы от зла. А если учесть, что главную союзницу героев зовут Тереза Берия, то врагам веры точно не позавидуешь!
© Hollow, World Art

Качество: Blu-Ray Remux
Формат: MKV
Видео кодек: AVC
Аудио кодек: FLAC
Видео: 1920x1080 (16:9) 29,970 fps ~24,7 Mbps 8bit
Аудио:
Jap FLAC, 48000Hz, ~1454 Kbps, 2ch

Чаптеры присутствуют.
01. Ночь ужаса
02. За маской дружбы
03. Те, кто ищут
04. Королева и я
05. Белые лилии на поле
06. Яйцо принцессы
07. Пречистая Мария
08. Единый в двух лицах (часть первая)
09. Единый в двух лицах (часть вторая)
10. Впервые (?) одна дома
11. Распятие ведьмы
12. Меч крови
13. Ночь на железных источниках
14. Меланхолия Тсуджидо Миюри
15. Англо-русская Антанта
16. Феникс осуждения
17. Огненное Евангелие
18. Ловушка Уробороса
19. Тайный сад
20. Бумажная Императрица
21. Водное святилище
22. Геена Троицы
23. Мученик Саша
24. Юность бывает один раз в жизни
Общее
Уникальный идентификатор : 190144316745011155532761166633957402854 (0x8F0C769D48173EB5B1890947099928E6)
Полное имя : M:\pub\Video\Anime\Seikon no Qwaser\Season 1\[anti-raws]Seikon no Qwaser S1 ep.01[BDRemux].mkv
Формат : Matroska
Версия формата : Version 4 / Version 2
Размер файла : 4,40 Гбайт
Продолжительность : 23 м.
Режим общего битрейта : Переменный
Общий поток : 26,7 Мбит/сек
Дата кодирования : UTC 2016-12-21 21:54:48
Программа кодирования : mkvmerge v9.6.0 ('Slave To Your Mind') 64bit
Библиотека кодирования : libebml v1.3.4 + libmatroska v1.4.5

Видео
Идентификатор : 2
Формат : AVC
Формат/Информация : Advanced Video Codec
Профиль формата : High@L4.1
Параметр CABAC формата : Да
Параметр ReFrames формата : 2 кадра
Идентификатор кодека : V_MPEG4/ISO/AVC
Продолжительность : 23 м.
Вид битрейта : Переменный
Битрейт : 25,2 Мбит/сек
Максимальный битрейт : 38,0 Мбит/сек
Ширина : 1920 пикселей
Высота : 1080 пикселей
Соотношение сторон : 16:9
Режим частоты кадров : Постоянный
Частота кадров : 29,970 (30000/1001) кадров/сек
Цветовое пространство : YUV
Субдискретизация насыщенности : 4:2:0
Битовая глубина : 8 бит
Тип развёртки : MBAFF
Метод сохранения типа развёртки : Чередующиеся поля
Порядок развёртки : Верхнее поле первое
Бит/(Пиксели*Кадры) : 0.406
Размер потока : 4,16 Гбайт (95%)
Default : Нет
Forced : Нет
Цветовой диапазон : Limited
Основные цвета : BT.709
Характеристики трансфера : BT.709
Коэффициенты матрицы : BT.709

Аудио
Идентификатор : 1
Формат : FLAC
Формат/Информация : Free Lossless Audio Codec
Идентификатор кодека : A_FLAC
Продолжительность : 23 м.
Вид битрейта : Переменный
Битрейт : 1454 Кбит/сек
Каналы : 2 канала
Расположение каналов : Front: L R
Частота : 48,0 КГц
Частота кадров : 11,719 кадров/сек (4096 spf)
Битовая глубина : 24 бит
Размер потока : 246 Мбайт (5%)
Библиотека кодирования : libFLAC 1.2.1 (UTC 2007-09-17)
Язык : Japanese
Default : Да
Forced : Нет

Меню
00:00:00.000 : en:00:00:00.000
00:01:07.000 : en:00:01:07.000
00:02:37.024 : en:00:02:37.024
00:10:52.986 : en:00:10:52.986
00:21:31.023 : en:00:21:31.023
00:23:10.990 : en:00:23:10.990
<a href="viewtopic.php?t=2628143" class="postLink">...2628143</a>
<a href="viewtopic.php?t=2619637" class="postLink">...2619637</a>
--HDTVRip

<a href="viewtopic.php?t=2930206" class="postLink">...2930206</a>
<a href="viewtopic.php?t=3059246" class="postLink">...3059246</a>
<a href="viewtopic.php?t=2918640" class="postLink">...2918640</a>
<a href="viewtopic.php?t=2924096" class="postLink">...2924096</a>
--BDRip

Эта раздача - BDRemux


Трекер:  [ 07-Янв-2017 18:00 ]

  

Скачать .torrent

Размер .torrent файла 146 KB


Размер: 109.79 GB
Хэш (hash) релиза: a067264cf436eaf77523eefbd35f6545d9d27fed
Подписка на обновления:

Торренты, похожие на Адепт Святого Знака Seikon no Qwaser скачать торрент

Форум Название Автор Размер S L Добавлен
Аниме | Rips ·· Seikon no Qwaser / The Qwaser of Stigmata / Адепт Святого знака / Квазер со стигматом (Канэко Хираку) [ТВ-1] [24 из 24] [Без хардсаба] [RUS(int), JAP+SUB] [2010 г., приключения, мистика, этти, BDRip] [HWP] Galfimbul 62745464775.84 GB 0 0 1444858621

00:37

15-Окт-15

Аниме | HD Rips ·· Seikon no Qwaser / The Qwaser of Stigmata / Адепт Святого знака / Квазер со стигматом [TV] [1-24 из 24] [RUS(ext),JAP+SUB] [Specials 1-10 из 16] [2010 г., приключения, мистика, этти, BDRip] [720p] [Любительская] Galfimbul 1402224498513.06 GB 0 0 1303585307

22:01

23-Апр-11

Аниме | HD Rips ·· Адепт Святого Знака 2 / Seikon no Qwaser 2 / The Qwaser of Stigmata 2 / Квазер со Стигматом 2 (Канэко Хираку) [TV+Special] [12+4 из 12+4] [без хардсаба] [RUS(ext), JAP+SUB] [2011, приключения, мистика, этти, BDRemux] [1080p] Galfimbul 5334280029049.68 GB 0 0 1502569873

23:31

12-Авг-17

Аниме | HD Rips ·· Адепт Святого знака (Квазер со стигматом) / Seikon no Qwaser (The Qwaser of Stigmata) (Канэко Хираку) [TV+Special] [без хардсаба] [9+6 из 24+16] [JAP+SUB] & [8+0 из 24+16] [RUS(ext)] [2010 г., приключения, мистика, этти, BDRip] [720p] L 96243420648.96 GB 0 0 1364540595

10:03

29-Мар-13

Еще никто не оставлял запись к записи скачать торрент Адепт Святого Знака Seikon no Qwaser . Будь первым!

!Обратная связь