[iPad] The Accountant torrent

2.2 GB   |    :  4 20    |    .torrent :  32    |   
1  
   
 

Galfimbul

avatar Galfimbul


<span class="post-font-serif1"> / The Accountant
Calculate your choices

7.444 / 10 7.50 / 10
: 2016
:
: , , ,
: 02:07:54

: (iTunes)
:
C: , , , SDH
: Β
:
: . , , Β
:
:
: . , ,
:
: , , .. , , , -, , , ,

: $44 000 000
: $85 993 107
: + $63 200 000 = $149 193 107
: $2 968 369

: 13 2016
(): 27 2016, -

: , . , , . , .
: BDRemux
: BDRip
: SD (576p)
: M4V
: H.264, 1024x432, 2.40:1, 2 200 Kbps, 23.976 (24000/1001) fps

1: / (iTunes), AAC / 2.0 / 128 Kbps / 48.0 KHz
2: / , AAC / 2.0 / 128 Kbps / 48.0 KHz

1:
2:
3:
4: SDH



</span>
Sort Name: Accountant
XID: Apple:vendor_id:2016-662359
contentID: 1161476603
Copyright: 2016 Warner Bros. Entertainment Inc. and RatPac-Dune Entertainment LLC.
Screenwriters:
Producers: . , , Β
Director: Β
Cast: , , .. , , , -, , , , , , , , ,
Studio: Warner Bros.
Rating: 5
Long Description: , . , , "" . , .
Description: , . , , "" . , .
Release Date: 2016-10-13T08:00:00Z
Genre: Drama
Artist: Gavin O\'Connor
Name: The Accountant (2016)
General
Complete name : /Users/imac/HandBrake/The.Accountant.(SD).(pk).m4v
Format : MPEG-4
Codec ID : M4V (M4V /M4A /mp42/isom)
File size : 2.20 GiB
Duration : 2h 7mn
Overall bit rate mode : Variable
Overall bit rate : 2 458 Kbps
Movie name : The Accountant (2016)
Performer : Gavin O\'Connor
Director : Β
Actor : / / .. / / / - / / / / / / / / /
Screenplay by :
Producer : . / / Β
Production studio : Warner Bros.
Genre : Drama
ContentType : Short Film
Description : , . , , "" . , .
Recorded date : UTC 2016-10-13 08:00:00
Encoded date : UTC 2017-01-07 10:53:44
Tagged date : UTC 2017-01-07 10:55:16
Copyright : 2016 Warner Bros. Entertainment Inc. and RatPac-Dune Entertainment LLC.
Cover : Yes
Rating : None
Title/Sort : Accountant
LongDescription : , . , , "" . , .
AppleStoreCatalogID : 1161476603
Vendor : Apple:vendor_id:2016-662359
ContentRating : mpaa|R|400|

Video #1
ID : 1
Format : AVC
Format/Info : Advanced Video Codec
Format profile : High@L3.1
Format settings, CABAC : Yes
Format settings, ReFrames : 9 frames
Codec ID : avc1
Codec ID/Info : Advanced Video Coding
Duration : 2h 7mn
Source duration : 2h 7mn
Bit rate : 2 200 Kbps
Width : 1 024 pixels
Height : 432 pixels
Display aspect ratio : 2.40:1
Frame rate mode : Variable
Frame rate : 23.976 (24000/1001) fps
Minimum frame rate : 23.974 fps
Maximum frame rate : 23.981 fps
Color space : YUV
Chroma subsampling : 4:2:0
Bit depth : 8 bits
Scan type : Progressive
Bits/(Pixel*Frame) : 0.207
Stream size : 1.96 GiB (89%)
Source stream size : 1.96 GiB (89%)
Title : Main Program
Writing library : x264 core 142 r2479 dd79a61
Encoding settings : cabac=1 / ref=9 / deblock=1:0:0 / analyse=0x3:0x113 / me=umh / subme=9 / psy=1 / psy_rd=1.00:0.00 / mixed_ref=1 / me_range=32 / chroma_me=1 / trellis=1 / 8x8dct=1 / cqm=0 / deadzone=21,11 / fast_pskip=1 / chroma_qp_offset=-2 / threads=36 / lookahead_threads=3 / sliced_threads=0 / nr=0 / decimate=1 / interlaced=0 / bluray_compat=0 / constrained_intra=0 / bframes=6 / b_pyramid=2 / b_adapt=2 / b_bias=0 / direct=1 / weightb=1 / open_gop=0 / weightp=2 / keyint=240 / keyint_min=24 / scenecut=40 / intra_refresh=0 / rc_lookahead=40 / rc=2pass / mbtree=1 / bitrate=2200 / ratetol=1.0 / qcomp=0.60 / qpmin=0 / qpmax=69 / qpstep=4 / cplxblur=20.0 / qblur=0.5 / ip_ratio=1.40 / aq=1:1.00
Language : English
Encoded date : UTC 2017-01-07 10:53:45
Tagged date : UTC 2017-01-07 10:53:51
Color range : Limited
Color primaries : BT.709
Transfer characteristics : BT.709
Matrix coefficients : BT.709
Menus : 8,9

Video #2
ID : 9
Format : JPEG
Codec ID : jpeg
Duration : 2h 7mn
Bit rate mode : Variable
Bit rate : 629 bps
Width : 640 pixels
Height : 270 pixels
Display aspect ratio : 2.40:1
Frame rate mode : Variable
Frame rate : 0.002 fps
Minimum frame rate : 0.001 fps
Maximum frame rate : 0.003 fps
Color space : YUV
Chroma subsampling : 4:2:0
Bit depth : 8 bits
Compression mode : Lossy
Bits/(Pixel*Frame) : 1.820
Stream size : 461 KiB (0%)
Title : Chapter Images
Language : English
Default : No
Encoded date : UTC 2017-01-07 10:53:59
Tagged date : UTC 2017-01-07 10:53:59
Menu For : 1

Audio #1
ID : 2
Format : AAC
Format/Info : Advanced Audio Codec
Format profile : LC
Codec ID : 40
Duration : 2h 7mn
Bit rate mode : Variable
Bit rate : 126 Kbps
Maximum bit rate : 196 Kbps
Channel(s) : 2 channels
Channel positions : Front: L R
Sampling rate : 48.0 KHz
Frame rate : 46.875 fps (1024 spf)
Compression mode : Lossy
Stream size : 115 MiB (5%)
Title : Russian Stereo
Language : Russian
Default : Yes
Alternate group : 1
Encoded date : UTC 2017-01-07 10:53:45
Tagged date : UTC 2017-01-07 10:53:56
Subtitles : 4,5

Audio #2
ID : 3
Format : AAC
Format/Info : Advanced Audio Codec
Format profile : LC
Codec ID : 40
Duration : 2h 7mn
Bit rate mode : Variable
Bit rate : 126 Kbps
Maximum bit rate : 187 Kbps
Channel(s) : 2 channels
Channel positions : Front: L R
Sampling rate : 48.0 KHz
Frame rate : 46.875 fps (1024 spf)
Compression mode : Lossy
Stream size : 115 MiB (5%)
Title : English Stereo
Language : English
Default : No
Alternate group : 1
Encoded date : UTC 2017-01-07 10:53:45
Tagged date : UTC 2017-01-07 10:53:56

Text #1
ID : 4
Format : Timed Text
Muxing mode : sbtl
Codec ID : tx3g
Duration : 1h 34mn
Bit rate mode : Variable
Bit rate : 3 bps
Stream size : 2.12 KiB (0%)
Title : Russian forced
Language : Russian
Default : Yes
Forced : Yes
Alternate group : 2
Encoded date : UTC 2017-01-07 10:53:45
Tagged date : UTC 2017-01-07 10:53:51
Subtitles For : 2
Full Alternative : 5

Text #2
ID : 5
Format : Timed Text
Muxing mode : sbtl
Codec ID : tx3g
Duration : 2h 3mn
Bit rate mode : Variable
Bit rate : 111 bps
Stream size : 101 KiB (0%)
Title : Russian full
Language : Russian
Default : No
Forced : No
Alternate group : 2
Encoded date : UTC 2017-01-07 10:53:45
Tagged date : UTC 2017-01-07 10:53:52
Subtitles For : 2
Forced Alternative : 4

Text #3
ID : 6
Format : Timed Text
Muxing mode : sbtl
Codec ID : tx3g
Duration : 1h 59mn
Bit rate mode : Variable
Bit rate : 60 bps
Stream size : 52.8 KiB (0%)
Title : English full
Language : English
Default : No
Forced : No
Alternate group : 2
Encoded date : UTC 2017-01-07 10:53:45
Tagged date : UTC 2017-01-07 10:53:52

Text #4
ID : 7
Format : Timed Text
Muxing mode : sbtl
Codec ID : tx3g
Duration : 2h 0mn
Bit rate mode : Variable
Bit rate : 66 bps
Stream size : 58.4 KiB (0%)
Title : English SDH
Language : English
Default : No
Forced : No
Alternate group : 2
Encoded date : UTC 2017-01-07 10:53:45
Tagged date : UTC 2017-01-07 10:53:52

Menu #1
00:00:00.000 : Chapter 1
00:13:01.531 : Chapter 2
00:20:36.360 : Chapter 3
00:29:30.477 : Chapter 4
00:38:44.739 : Chapter 5
00:49:33.762 : Chapter 6
01:00:05.519 : Chapter 7
01:13:39.790 : Chapter 8
01:25:57.152 : Chapter 9
01:39:15.741 : Chapter 10
01:54:31.239 : Chapter 11
02:01:40.335 : Chapter 12

Menu #2
ID : 8
Codec ID : text
Duration : 2h 7mn
Language : English
Encoded date : UTC 2017-01-07 10:53:56
Tagged date : UTC 2017-01-07 10:53:56
Menu For : 1
00:00:00.000 : Chapter 1
00:13:01.531 : Chapter 2
00:20:36.360 : Chapter 3
00:29:30.477 : Chapter 4
00:38:44.739 : Chapter 5
00:49:33.762 : Chapter 6
01:00:05.519 : Chapter 7
01:13:39.790 : Chapter 8
01:25:57.152 : Chapter 9
01:39:15.741 : Chapter 10
01:54:31.239 : Chapter 11
02:01:40.335 : Chapter 12
Bit rate mode : VBR
x264 [info]: frame I:1709 Avg QP:13.78 size: 80835
x264 [info]: frame P:37510 Avg QP:16.41 size: 23915
x264 [info]: frame B:144780 Avg QP:18.53 size: 7407
x264 [info]: consecutive B-frames: 2.3% 2.3% 5.4% 11.8% 16.3% 41.1% 20.7%
x264 [info]: mb I I16..4: 13.1% 67.3% 19.6%
x264 [info]: mb P I16..4: 1.5% 8.7% 1.6% P16..4: 34.8% 25.6% 16.8% 0.0% 0.0% skip:11.0%
x264 [info]: mb B I16..4: 0.1% 1.3% 0.1% B16..8: 41.2% 10.5% 3.3% direct: 3.7% skip:39.7% L0:48.1% L1:45.0% BI: 6.9%
x264 [info]: 8x8 transform intra:75.6% inter:66.4%
x264 [info]: coded y,uvDC,uvAC intra: 88.9% 83.2% 62.6% inter: 25.6% 20.5% 3.3%
x264 [info]: i16 v,h,dc,p: 42% 14% 10% 33%
x264 [info]: i8 v,h,dc,ddl,ddr,vr,hd,vl,hu: 9% 7% 6% 11% 15% 14% 14% 12% 12%
x264 [info]: i4 v,h,dc,ddl,ddr,vr,hd,vl,hu: 10% 8% 3% 10% 15% 15% 14% 12% 13%
x264 [info]: i8c dc,h,v,p: 42% 23% 19% 15%
x264 [info]: Weighted P-Frames: Y:4.8% UV:2.1%
x264 [info]: ref P L0: 42.8% 7.6% 19.3% 7.9% 7.2% 4.9% 4.8% 2.5% 2.7% 0.3% 0.0%
x264 [info]: ref B L0: 60.3% 16.1% 9.0% 5.5% 3.7% 3.2% 1.8% 0.5%
x264 [info]: ref B L1: 88.2% 11.8%
x264 [info]: kb/s:2197.10

<span class="post-font-serif1">
Apple TV, iPad, iPhone, <a href="www.apple.com/ipodtouch/" class="postLink">iPod Touch</a>.
Windows VLC media player</span>

 ·  , , FAQ-
:  [ 07--2017 14:00 ]

  

.torrent

.torrent 22 KB


: 2.2 GB
(hash) : 900b6dd8a660c3ab4ab9aa2b0754c553f477ac6e
··
...

[iPad] The Accountant . !

!