Скачать через торрент музыку Ирония судьбы бесплатно без регистрации torrent

Если у вас наблюдаются проблемы со скриншотами, переходом по ссылками, скачиванием торрентов - проблемы в блокировщике рекламы AdBlock. #хорошегоДня!


Статистика раздачи
Размер:  222 MB   |    Зарегистрирован:  8 месяцев   |    .torrent скачан:  28 раз   |   
Раздают:  1  
   
Загрузка...
 
Автор Сообщение

Galfimbul

avatar Galfimbul



<span class="post-font-serif1">Ирония cудьбы
Микаэл Таривердиев
Limited Edition

Жанр: Soundtrack | Дата выпуска: 25 ноября 2016
Издатель (лейбл): Earth Records | Номер по каталогу: EARTHCD016
Аудиокодек: FLAC | Тип рипа: image+.cue | Битрейт аудио: lossless
Общая продолжительность: 41:15
Источник: Рип оригинального диска из личной коллекции</span>
<span class="post-font-serif1">
01. Ouverture | Увертюра
02. What Is Happening to Me? | Со мною вот что происходит
03. Hope | Надежда
04. Expectation of the New Year | Ожидание праздника
05. No One's Home | Никого не будет в доме
06. Snow Over Leningrad | Снег над Ленинградом
07. Along My Street for Many Years | По улице моей
08. The Third Stroitelnaya Street | На Третьей улице строителей
09. On Tikhoretskaya | На Тихорецкую
10. Happy New Year | С Новым годом!
11. I Like | Мне нравится
12. Aria for a Moscow Guest | Ария московского гостя
13. The Last Waltz | Последний вальс
14. I Asked the Mirror | У зеркала
15. I Asked the Ash Tree | Я спросил у ясеня
16. Do Not Leave Your Lover | С любимыми не расставайтесь
17. Melody | Мелодия</span>
Exact Audio Copy V1.3 from 2. September 2016

EAC extraction logfile from 6. January 2017, 12:10

Mikael Tariverdiev / The Irony of Fate (Original Soundtrack)

Used drive : TSSTcorpCDDVDW TS-L633C Adapter: 1 ID: 0

Read mode : SecureUtilize accurate stream : YesDefeat audio cache : YesMake use of C2 pointers : No

Read offset correction : 6Overread into Lead-In and Lead-Out : NoFill up missing offset samples with silence : YesDelete leading and trailing silent blocks : NoNull samples used in CRC calculations : YesUsed interface : Native Win32 interface for Win NT & 2000

Used output format : Internal WAV RoutinesSample format : 44.100 Hz; 16 Bit; Stereo

TOC of the extracted CD

Track | Start | Length | Start sector | End sector --------------------------------------------------------- 1 | 0:00.00 | 2:43.01 | 0 | 12225 2 | 2:43.01 | 2:28.29 | 12226 | 23354 3 | 5:11.30 | 4:24.71 | 23355 | 43225 4 | 9:36.26 | 1:14.69 | 43226 | 48844 5 | 10:51.20 | 2:17.72 | 48845 | 59191 6 | 13:09.17 | 2:47.07 | 59192 | 71723 7 | 15:56.24 | 2:48.14 | 71724 | 84337 8 | 18:44.38 | 1:55.17 | 84338 | 92979 9 | 20:39.55 | 1:28.53 | 92980 | 99632 10 | 22:08.33 | 2:45.73 | 99633 | 112080 11 | 24:54.31 | 1:35.45 | 112081 | 119250 12 | 26:30.01 | 1:54.45 | 119251 | 127845 13 | 28:24.46 | 1:44.02 | 127846 | 135647 14 | 30:08.48 | 1:35.73 | 135648 | 142845 15 | 31:44.46 | 3:35.43 | 142846 | 159013 16 | 35:20.14 | 2:39.07 | 159014 | 170945 17 | 37:59.21 | 3:16.20 | 170946 | 185665

Range status and errors

Selected range

Filename D:\Mikael Tariverdiev - The Irony of Fate (Original Soundtrack) (EARTHCD016).wav

Peak level 100.0 % Extraction speed 3.4 X Range quality 100.0 % Test CRC 0389FBB8 Copy CRC 0389FBB8 Copy OK

No errors occurred

AccurateRip summary

Track 1 not present in databaseTrack 2 not present in databaseTrack 3 not present in databaseTrack 4 not present in databaseTrack 5 not present in databaseTrack 6 not present in databaseTrack 7 not present in databaseTrack 8 not present in databaseTrack 9 not present in databaseTrack 10 not present in databaseTrack 11 not present in databaseTrack 12 not present in databaseTrack 13 not present in databaseTrack 14 not present in databaseTrack 15 not present in databaseTrack 16 not present in databaseTrack 17 not present in database

None of the tracks are present in the AccurateRip database

End of status report

---- CUETools DB Plugin V2.1.6

[CTDB TOCID: .LemLJlfz7_6KW7PaSHha2LDDi8-] disk not present in databaseSubmit result: .LemLJlfz7_6KW7PaSHha2LDDi8- has been uploaded

==== Log checksum 10BA93EF7CC500F047E8A3E3109AA945C0ECC1E850E822F645CE508156EFA54C ====
foobar2000 1.3.10 / Замер динамического диапазона (DR) 1.1.1Дата отчёта: 2017-01-06 12:12:02

--------------------------------------------------------------------------------Анализ: Mikael Tariverdiev / The Irony of Fate (Original Soundtrack)--------------------------------------------------------------------------------

DR Пики RMS Продолжительность трека--------------------------------------------------------------------------------DR8 -0.34 дб -11.84 дб 2:43 01-OuvertureDR13 -0.03 дб -16.19 дб 2:28 02-What Is Happening to MeDR14 -0.34 дб -17.31 дб 4:25 03-HopeDR11 -0.34 дб -14.66 дб 1:15 04-Expectation of the New YearDR11 0.00 дб -15.36 дб 2:18 05-No One's HomeDR10 -0.34 дб -14.34 дб 2:47 06-Snow Over LeningradDR12 0.00 дб -14.81 дб 2:48 07-Along My Street for Many YearsDR11 -2.02 дб -16.54 дб 1:55 08-The Third Stroitelnaya StreetDR8 -0.34 дб -11.42 дб 1:29 09-On TikhoretskayaDR9 -0.34 дб -11.92 дб 2:46 10-Happy New YearDR12 -0.01 дб -16.84 дб 1:36 11-I LikeDR10 -0.33 дб -11.58 дб 1:55 12-Aria for a Moscow GuestDR10 -1.05 дб -13.92 дб 1:44 13-The Last WaltzDR9 -0.03 дб -12.53 дб 1:36 14-I Asked the MirrorDR12 0.00 дб -16.08 дб 3:36 15-I Asked the Ash TreeDR11 -0.34 дб -15.22 дб 2:39 16-Do Not Leave Your LoverDR10 -0.01 дб -13.18 дб 3:16 17-Melody--------------------------------------------------------------------------------

Количество треков: 17Реальные значения DR: DR11

Частота: 44100 ГцКаналов: 2Бит на сэмпл: 16Битрейт: 1411 кбит/сКодек: PCM================================================================================
[spoiler="CUE [eng]"]

REM GENRE SoundtrackREM DATE 2016REM DISCID D809AB11REM COMMENT "ExactAudioCopy v1.3"PERFORMER "Mikael Tariverdiev"TITLE "The Irony of Fate (Original Soundtrack)"REM COMPOSER ""FILE "Mikael Tariverdiev - The Irony of Fate (Original Soundtrack) (EARTHCD016).flac" WAVE TRACK 01 AUDIO TITLE "Ouverture" PERFORMER "Mikael Tariverdiev" REM COMPOSER "Mikael Tariverdiev" INDEX 01 00:00:00 TRACK 02 AUDIO TITLE "What Is Happening to Me" PERFORMER "Mikael Tariverdiev" REM COMPOSER "Mikael Tariverdiev" INDEX 01 02:43:01 TRACK 03 AUDIO TITLE "Hope" PERFORMER "Mikael Tariverdiev" REM COMPOSER "Mikael Tariverdiev" INDEX 01 05:11:30 TRACK 04 AUDIO TITLE "Expectation of the New Year" PERFORMER "Mikael Tariverdiev" REM COMPOSER "Mikael Tariverdiev" INDEX 01 09:36:26 TRACK 05 AUDIO TITLE "No One's Home" PERFORMER "Mikael Tariverdiev" REM COMPOSER "Mikael Tariverdiev" INDEX 01 10:51:20 TRACK 06 AUDIO TITLE "Snow Over Leningrad" PERFORMER "Mikael Tariverdiev" REM COMPOSER "Mikael Tariverdiev" INDEX 01 13:09:17 TRACK 07 AUDIO TITLE "Along My Street for Many Years" PERFORMER "Mikael Tariverdiev" REM COMPOSER "Mikael Tariverdiev" INDEX 01 15:56:24 TRACK 08 AUDIO TITLE "The Third Stroitelnaya Street" PERFORMER "Mikael Tariverdiev" REM COMPOSER "Mikael Tariverdiev" INDEX 01 18:44:38 TRACK 09 AUDIO TITLE "On Tikhoretskaya" PERFORMER "Mikael Tariverdiev" REM COMPOSER "Mikael Tariverdiev" INDEX 01 20:39:55 TRACK 10 AUDIO TITLE "Happy New Year" PERFORMER "Mikael Tariverdiev" REM COMPOSER "Mikael Tariverdiev" INDEX 01 22:08:33 TRACK 11 AUDIO TITLE "I Like" PERFORMER "Mikael Tariverdiev" REM COMPOSER "Mikael Tariverdiev" INDEX 01 24:54:31 TRACK 12 AUDIO TITLE "Aria for a Moscow Guest" PERFORMER "Mikael Tariverdiev" REM COMPOSER "Mikael Tariverdiev" INDEX 01 26:30:01 TRACK 13 AUDIO TITLE "The Last Waltz" PERFORMER "Mikael Tariverdiev" REM COMPOSER "Mikael Tariverdiev" INDEX 01 28:24:46 TRACK 14 AUDIO TITLE "I Asked the Mirror" PERFORMER "Mikael Tariverdiev" REM COMPOSER "Mikael Tariverdiev" INDEX 01 30:08:48 TRACK 15 AUDIO TITLE "I Asked the Ash Tree" PERFORMER "Mikael Tariverdiev" REM COMPOSER "Mikael Tariverdiev" INDEX 01 31:44:46 TRACK 16 AUDIO TITLE "Do Not Leave Your Lover" PERFORMER "Mikael Tariverdiev" REM COMPOSER "Mikael Tariverdiev" INDEX 01 35:20:14 TRACK 17 AUDIO TITLE "Melody" PERFORMER "Mikael Tariverdiev" REM COMPOSER "Mikael Tariverdiev" INDEX 01 37:59:21
[/spoiler]
[spoiler="CUE [rus]"]

REM GENRE SoundtrackREM DATE 2016REM DISCID D809AB11REM COMMENT "ExactAudioCopy v1.3"PERFORMER "Микаэл Таривердиев"TITLE "Ирония судьбы (Original Soundtrack)"REM COMPOSER "Микаэл Таривердиев"FILE "Mikael Tariverdiev - The Irony of Fate (Original Soundtrack) (EARTHCD016).flac" WAVE TRACK 01 AUDIO TITLE "Увертюра" PERFORMER "Микаэл Таривердиев" REM COMPOSER "Микаэл Таривердиев" INDEX 01 00:00:00 TRACK 02 AUDIO TITLE "Со мною вот что происходит" PERFORMER "Микаэл Таривердиев" REM COMPOSER "Микаэл Таривердиев" INDEX 01 02:43:01 TRACK 03 AUDIO TITLE "Надежда" PERFORMER "Микаэл Таривердиев" REM COMPOSER "Микаэл Таривердиев" INDEX 01 05:11:30 TRACK 04 AUDIO TITLE "Ожидание праздника" PERFORMER "Микаэл Таривердиев" REM COMPOSER "Микаэл Таривердиев" INDEX 01 09:36:26 TRACK 05 AUDIO TITLE "Никого не будет в доме" PERFORMER "Микаэл Таривердиев" REM COMPOSER "Микаэл Таривердиев" INDEX 01 10:51:20 TRACK 06 AUDIO TITLE "Снег над Ленинградом" PERFORMER "Микаэл Таривердиев" REM COMPOSER "Микаэл Таривердиев" INDEX 01 13:09:17 TRACK 07 AUDIO TITLE "По улице моей" PERFORMER "Микаэл Таривердиев" REM COMPOSER "Микаэл Таривердиев" INDEX 01 15:56:24 TRACK 08 AUDIO TITLE "На Третьей улице строителей" PERFORMER "Микаэл Таривердиев" REM COMPOSER "Микаэл Таривердиев" INDEX 01 18:44:38 TRACK 09 AUDIO TITLE "На Тихорецкую" PERFORMER "Микаэл Таривердиев" REM COMPOSER "Микаэл Таривердиев" INDEX 01 20:39:55 TRACK 10 AUDIO TITLE "С Новым годом!" PERFORMER "Микаэл Таривердиев" REM COMPOSER "Микаэл Таривердиев" INDEX 01 22:08:33 TRACK 11 AUDIO TITLE "Мне нравится" PERFORMER "Микаэл Таривердиев" REM COMPOSER "Микаэл Таривердиев" INDEX 01 24:54:31 TRACK 12 AUDIO TITLE "Ария московского гостя" PERFORMER "Микаэл Таривердиев" REM COMPOSER "Микаэл Таривердиев" INDEX 01 26:30:01 TRACK 13 AUDIO TITLE "Последний вальс" PERFORMER "Микаэл Таривердиев" REM COMPOSER "Микаэл Таривердиев" INDEX 01 28:24:46 TRACK 14 AUDIO TITLE "У зеркала" PERFORMER "Микаэл Таривердиев" REM COMPOSER "Микаэл Таривердиев" INDEX 01 30:08:48 TRACK 15 AUDIO TITLE "Я спросил у ясеня" PERFORMER "Микаэл Таривердиев" REM COMPOSER "Микаэл Таривердиев" INDEX 01 31:44:46 TRACK 16 AUDIO TITLE "С любимыми не расставайтесь" PERFORMER "Микаэл Таривердиев" REM COMPOSER "Микаэл Таривердиев" INDEX 01 35:20:14 TRACK 17 AUDIO TITLE "Мелодия" PERFORMER "Микаэл Таривердиев" REM COMPOSER "Микаэл Таривердиев" INDEX 01 37:59:21
[/spoiler]


Трекер:  [ 06-Янв-2017 22:00 ]

  

Скачать .torrent

Размер .torrent файла 36 KB


Размер: 222 MB
Хэш (hash) релиза: 387575fae7a23626b4542d658c3e42ed09240cc4

Еще никто не оставлял запись к записи скачать торрент Ирония судьбы . Будь первым!

!Обратная связь