Скачать через торрент [VIDEO] Бугимен 2 Boogeyman 2 бесплатно русская версия torrent активатор

Если у вас наблюдаются проблемы со скриншотами, переходом по ссылками, скачиванием торрентов - проблемы в блокировщике рекламы AdBlock. #хорошегоДня!


Статистика раздачи
Размер:  1.67 GB   |    Зарегистрирован:  8 месяцев   |    .torrent скачан:  19 раз   |   
Раздают:  1  
   
Загрузка...
 
Автор Сообщение

Galfimbul

avatar Galfimbul


Бугимен 2 / Boogeyman 2
«Страх. В плоти»
Премьера: 2007
Оригинальное название: Boogeyman 2
Страна: США
Жанр: ужасы, триллер, драма
Возраст: 18+

Режиссер: Джефф Бетанкорт / Jeff Betancourt

В ролях: Даниэль Савре, Мэтт Коэн, Крисси Гриффит, Майкл Грациадей, Мэй Уитмэн, Рене О'Коннор, Тобин Белл, Джаррод Бэйли, Дэвид Галлахер, Сьюзен Джэймисон, Том Ленк, Лесли Маргерита, Лукас Флайшер, Джонни Симмонз, Сэмми Ханратти, Кристофер Джон Филдс, Келли Уолкер

Описание: Когда Генри и Лора были детьми, у них на глазах зарезали родителей. Они не сомневались в том, кто убийца. Дети всего мира знают это существо, живущее в темных чуланах и на чердаках. Это — Бугимен. Но вот прошло десять лет, а Бугимен продолжает возвращаться к Лоре и Генри в их страшных снах, будто желая закончить начатое.

Чтобы побороть страх, Лора решается лечь в клинику, где помогли забыть о случившемся Генри. Доктора и другие пациенты не верят в реальность Бугимена, однако вскоре череда загадочных смертей в психиатрической больнице заставит их усомниться…

Продолжительность: 01:28:56
Перевод: Дублированный
Оригинальная дорожка: есть

Автор рипа:

Качество видео: BDRip Исходник: BDRip (1080p) Формат: mp4
Видео кодек: MPEG-4 AVC Аудио кодек: AAC
Видео: 1280x720 (16:9) at 25.000 fps, AVC at 2 420 kbps avg, 0.105 bit/pixel
Аудио №1 Rus: 48.0 KHz, AAC, 2 ch, 128.0 Kbps
Аудио №2 Eng: 48.0 KHz, AAC, 2 ch, 128.0 Kbps
Субтитры: русские (полные), английские (полные)
Навигация по главам: нет
Размер: 1.67 GiB
avs [info]: 1280x720p 1:1 @ 25/1 fps (cfr)
x264 [info]: using SAR=1/1
x264 [info]: using cpu capabilities: MMX2 SSE2Fast SSSE3 Cache64
x264 [info]: profile High, level 4.1
x264 [info]: frame I:2673 Avg QP:16.74 size: 42647
x264 [info]: frame P:98105 Avg QP:19.44 size: 13706
x264 [info]: frame B:32621 Avg QP:20.04 size: 4758
x264 [info]: consecutive B-frames: 56.4% 32.1% 2.8% 8.7%
x264 [info]: mb I I16..4: 14.1% 68.8% 17.1%
x264 [info]: mb P I16..4: 3.0% 6.3% 0.4% P16..4: 48.4% 12.3% 12.0% 0.0% 0.0% skip:17.6%
x264 [info]: mb B I16..4: 0.1% 0.1% 0.0% B16..8: 39.5% 2.6% 0.3% direct: 2.9% skip:54.5% L0:41.5% L1:55.2% BI: 3.3%
x264 [info]: 8x8 transform intra:65.8% inter:90.1%
x264 [info]: coded y,uvDC,uvAC intra: 45.3% 72.6% 33.6% inter: 20.5% 35.7% 1.0%
x264 [info]: i16 v,h,dc,p: 33% 15% 11% 41%
x264 [info]: i8 v,h,dc,ddl,ddr,vr,hd,vl,hu: 17% 11% 38% 5% 7% 7% 6% 6% 4%
x264 [info]: i4 v,h,dc,ddl,ddr,vr,hd,vl,hu: 33% 17% 16% 5% 9% 7% 6% 4% 3%
x264 [info]: i8c dc,h,v,p: 59% 17% 20% 4%
x264 [info]: Weighted P-Frames: Y:2.8% UV:1.3%
x264 [info]: ref P L0: 52.4% 6.7% 16.1% 7.1% 5.1% 4.2% 3.6% 1.8% 1.7% 1.2% 0.0%
x264 [info]: ref B L0: 75.6% 10.7% 6.4% 2.5% 2.0% 1.5% 1.2% 0.1%
x264 [info]: ref B L1: 98.1% 1.9%
x264 [info]: kb/s:2419.59
encoded 133399 frames, 1.67 fps, 2419.59 kb/s
[/URL]
GeneralFormat : MPEG-4Format profile : Base MediaCodec ID : isom (isom)File size : 1.67 GiBDuration : 1 h 28 minOverall bit rate mode : VariableOverall bit rate : 2 686 kb/sMovie name : Бугимен 2 | KinoGadgetPerformer : Джефф БетанкортDirector : Джефф БетанкортActor : Даниэль Савре / Мэтт Коэн / Крисси Гриффит / Майкл Грациадей / Мэй Уитмэн / Рене О'Коннор / Тобин Белл / Джаррод Бэйли / Дэвид Галлахер / Сьюзен Джэймисон / Том Ленк / Лесли Маргерита / Лукас Флайшер / Джонни Симмонз / Сэмми Ханратти / Кристофер Джон Филдс / Келли У...Screenplay by : Брайан Сив / Эрик КрипкеProducer : Гари Бриман / Стив Хейн / Джозеф ДрэйкGenre : Drama, Horror, ThrillerContentType : Short FilmRecorded date : 2007Encoded date : UTC 2017-01-06 15:37:25Tagged date : UTC 2017-01-06 16:54:34Cover : YesXtra : WM/ProducerLongDescription : Когда Генри и Лора были детьми, у них на глазах зарезали родителей. Они не сомневались в том, кто убийца. Дети всего мира знают это существо, живущее в темных чуланах и на чердаках. Это — Бугимен. Но вот прошло десять лет, а Бугимен продолжает возвращаться к Лоре и Генри в их страшных снах, будто желая закончить начатое. / / Чтобы побороть страх, Лора решается лечь в клинику, где помогли забыть о случившемся Генри. Доктора и другие пациенты не верят в реальность Бугимена, однако вскоре череда загадочных смертей в психиатрической больнице заставит их усомниться…HDVideo : Yes

VideoID : 1Format : AVCFormat/Info : Advanced Video CodecFormat profile : High@L4.1Format settings, CABAC : YesFormat settings, ReFrames : 9 framesCodec ID : avc1Codec ID/Info : Advanced Video CodingDuration : 1 h 28 minBit rate : 2 420 kb/sMaximum bit rate : 6 641 kb/sWidth : 1 280 pixelsHeight : 720 pixelsDisplay aspect ratio : 16:9Frame rate mode : ConstantFrame rate : 25.000 FPSColor space : YUVChroma subsampling : 4:2:0Bit depth : 8 bitsScan type : ProgressiveBits/(Pixel*Frame) : 0.105Stream size : 1.50 GiB (90%)Writing library : x264 core 148 r2638 7599210Encoding settings : cabac=1 / ref=9 / deblock=1:-2:-1 / analyse=0x3:0x113 / me=umh / subme=7 / psy=1 / psy_rd=1.00:0.15 / mixed_ref=1 / me_range=32 / chroma_me=1 / trellis=1 / 8x8dct=1 / cqm=0 / deadzone=21,11 / fast_pskip=1 / chroma_qp_offset=-3 / threads=3 / lookahead_threads=1 / sliced_threads=0 / nr=0 / decimate=1 / interlaced=0 / bluray_compat=0 / constrained_intra=0 / bframes=3 / b_pyramid=2 / b_adapt=1 / b_bias=0 / direct=1 / weightb=1 / open_gop=0 / weightp=2 / keyint=250 / keyint_min=25 / scenecut=40 / intra_refresh=0 / rc_lookahead=40 / rc=crf / mbtree=1 / crf=20.0 / qcomp=0.60 / qpmin=0 / qpmax=69 / qpstep=4 / vbv_maxrate=62500 / vbv_bufsize=78125 / crf_max=0.0 / nal_hrd=none / filler=0 / ip_ratio=1.40 / aq=1:1.00Language : RussianEncoded date : UTC 2017-01-06 15:03:14Tagged date : UTC 2017-01-06 15:38:03

Audio #1ID : 2Format : AACFormat/Info : Advanced Audio CodecFormat profile : LCCodec ID : 40Duration : 1 h 28 minBit rate mode : VariableBit rate : 128 kb/sMaximum bit rate : 135 kb/sChannel(s) : 2 channelsChannel positions : Front: L RSampling rate : 48.0 kHzFrame rate : 46.875 FPS (1024 spf)Compression mode : LossyStream size : 81.4 MiB (5%)Title : DubLanguage : RussianEncoded date : UTC 2017-01-06 15:06:05Tagged date : UTC 2017-01-06 15:38:03

Audio #2ID : 3Format : AACFormat/Info : Advanced Audio CodecFormat profile : LCCodec ID : 40Duration : 1 h 28 minBit rate mode : VariableBit rate : 128 kb/sMaximum bit rate : 135 kb/sChannel(s) : 2 channelsChannel positions : Front: L RSampling rate : 48.0 kHzFrame rate : 46.875 FPS (1024 spf)Compression mode : LossyStream size : 81.4 MiB (5%)Language : EnglishEncoded date : UTC 2017-01-06 15:11:17Tagged date : UTC 2017-01-06 15:38:03

Text #1ID : 4Format : Timed TextCodec ID : tx3gDuration : 1 h 24 minBit rate mode : VariableBit rate : 66 b/sStream size : 40.8 KiB (0%)Title : FullLanguage : RussianForced : NoEncoded date : UTC 2017-01-06 15:38:02Tagged date : UTC 2017-01-06 15:38:03

Text #2ID : 5Format : Timed TextCodec ID : tx3gDuration : 1 h 24 minBit rate mode : VariableBit rate : 45 b/sStream size : 28.2 KiB (0%)Title : FullLanguage : EnglishForced : NoEncoded date : UTC 2017-01-06 15:38:03Tagged date : UTC 2017-01-06 15:38:03


Трекер:  [ 06-Янв-2017 21:30 ]

  

Скачать .torrent

Размер .torrent файла 17 KB


Размер: 1.67 GB
Хэш (hash) релиза: 18a5094440b1d81fb288fe1550698fdbaf51e804

Еще никто не оставлял запись к записи скачать торрент [VIDEO] Бугимен 2 Boogeyman 2 . Будь первым!

!Обратная связь