Скачать через торрент Франц Frantz бесплатно русская версия torrent активатор

Если у вас наблюдаются проблемы со скриншотами, переходом по ссылками, скачиванием торрентов - проблемы в блокировщике рекламы AdBlock. #хорошегоДня!


Статистика раздачи
Размер:  3.69 GB   |    Зарегистрирован:  9 месяцев   |    .torrent скачан:  15 раз   |   
Раздают:  1  
   
Загрузка...
 
Автор Сообщение

Galfimbul

avatar Galfimbul


<span class="post-font-serif1">Франц / Frantz
-

7.421 / 10 7.60 / 10
Год выпуска: 2016
Страна: Франция, Германия
Жанр: Драма
Продолжительность: 01:53:42

Перевод: Дублированный (iTunes)
Оригинальная аудиодорожка: Нет
Cубтитры: Нет
Режиссёр: Франсуа Озон
Сценарий: Франсуа Озон, Philippe Piazzo
Продюсер: Эрик Альтмайер, Николас Альтмайер, Штефан Арндт
Оператор: Паскаль Марти
Композитор: Филипп Ромби
Художник: Мишель Бартелеми, Сюзанна Абель, Паскалин Шаванн
Монтаж: Лор Гердетт
В ролях: Пьер Нинэ, Паула Бир, Эрнст Штёцнер, Мария Грубер, Йохан фон Бюлов, Антон фон Люк, Сирил Клер, Элис де Ланкесэ, Аксель Вандтке, Райнер Эггер

Сборы в России: $105 952

Мировая премьера: 3 сентября 2016
Премьера (РФ): 13 октября 2016, «Cinema Prestige»

Описание: Анна и Франц жили в небольшом немецком городе, были молоды, влюблены друг в друга и собирались пожениться. Но в тихое счастье двоих вмешался большой сумасшедший мир — шла Первая мировая война, Франца отправили на фронт во Францию, где он, 23-летний скрипач, обожавший стихи Верлена, погиб. Война закончилась, а жизнь Анны теперь свелась к поддержке пожилых родителей любимого и посещениям кладбища. Однажды там она видит незнакомого человека, который принес цветы на могилу Франца. Он, Адриен, — француз, а, значит, враг. Но встреча с ним переворачивает ее жизнь…
Качество исходника: WEB-DL 720p (NNMClub)
Качество: WEB-DL
Тип: HD (720p)
Контейнер: M4V
Видео: H.264, 1280x534, 2.40:1, 4 103 Kbps, 24.000 fps

Аудио 1: Русский/Дублированный (iTunes), AAC / 2.0 / 160 Kbps / 48.0 KHz
Аудио 2: Русский/Дублированный (iTunes), AC-3 / 5.1 / 384 Kbps / 48.0 KHz



</span>
Sort Name: Франц
XID: Apple:vendor_id:2016-934350
contentID: 1182674106
Copyright: © 2016 Cinema Prestige
Screenwriters: Франсуа Озон, Philippe Piazzo
Producers: Эрик Альтмайер, Николас Альтмайер, Штефан Арндт
Director: Франсуа Озон
Cast: Пьер Нинэ, Паула Бир, Эрнст Штёцнер, Мария Грубер, Йохан фон Бюлов, Антон фон Люк, Сирил Клер, Элис де Ланкесэ, Аксель Вандтке, Райнер Эггер, Антон Савенков, Варвара Чабан, Владимир Левашёв, Ольга Кузнецова, Сергей Набиев
Studio: Canal+, Centre National de la Cinеmatographie (CNC), Cine, (DFFF)
Rating: 135
Long Description: Анна и Франц жили в небольшом немецком городе, были молоды, влюблены друг в друга и собирались пожениться. Но в тихое счастье двоих вмешался большой сумасшедший мир - шла Первая мировая война, Франца отправили на фронт во Францию, где он, 23-летний скрипач, обожавший стихи Верлена, погиб. Война закончилась, а жизнь Анны теперь свелась к поддержке пожилых родителей любимого и посещениям кладбища. Однажды там она видит незнакомого человека, который принес цветы на могилу Франца. Он, Адриен, - француз, а, значит, враг. Но встреча с ним переворачивает ее жизнь...
Description: Анна и Франц жили в небольшом немецком городе, были молоды, влюблены друг в друга и собирались пожениться. Но в тихое счастье двоих вмешался большой сумасшедший мир - шла Первая мировая война, Франца отправили на фронт во Францию, где он, 23-летний скрипач, обожавший стихи Верлена, погиб. Война закончилась, а жизнь Анны теперь свелась к поддержке пожилых родителей любимого и посещениям кладбища. Однажды там она видит незнакомого человека, который принес цветы на могилу Франца. Он, Адриен, - француз, а, значит, враг. Но встреча с ним переворачивает ее жизнь...
Release Date: 2016-09-03T08:00:00Z
Genre: Драма
Artist: Франсуа Озон
Name: Франц
General
Complete name : /Users/imac/HandBrake/Frantz.WEB-DL.720p.m4v
Format : MPEG-4
Codec ID : M4V
File size : 3.69 GiB
Duration : 1h 53mn
Overall bit rate mode : Variable
Overall bit rate : 4 651 Kbps
Movie name : Франц
Performer : Франсуа Озон
Director : Франсуа Озон
Actor : Пьер Нинэ / Паула Бир / Эрнст Штёцнер / Мария Грубер / Йохан фон Бюлов / Антон фон Люк / Сирил Клер / Элис де Ланкесэ / Аксель Вандтке / Райнер Эггер / Антон Савенков / Варвара Чабан / Владимир Левашёв / Ольга Кузнецова / Сергей Набиев
Screenplay by : Франсуа Озон / Philippe Piazzo
Producer : Эрик Альтмайер / Николас Альтмайер / Штефан Арндт
Production studio : Canal+, Centre National de la Cinеmatographie (CNC), Cine, (DFFF)
Genre : Драма
ContentType : Short Film
Description : Анна и Франц жили в небольшом немецком городе, были молоды, влюблены друг в друга и собирались пожениться. Но в тихое счастье двоих вмешался большой сумасшедший мир - шла Первая мировая война, Франца отправили на фронт во Францию, где он, 23-летний скрипач, обожавший стихи Верлена, погиб. Война закончилась, а жизнь Анны теперь свелась к поддержке пожилых родителей любимого и посещениям кладбища. Однажды там она видит незнакомого человека, который принес цветы на могилу Франца. Он, Адриен, - француз, а, значит, враг. Но встреча с ним переворачивает ее жизнь...
Recorded date : UTC 2016-09-03 08:00:00
Encoded date : UTC 2017-01-06 17:41:08
Tagged date : UTC 2017-01-06 17:45:09
Copyright : © 2016 Cinema Prestige
Cover : Yes
Rating : None
Title/Sort : Франц
LongDescription : Анна и Франц жили в небольшом немецком городе, были молоды, влюблены друг в друга и собирались пожениться. Но в тихое счастье двоих вмешался большой сумасшедший мир - шла Первая мировая война, Франца отправили на фронт во Францию, где он, 23-летний скрипач, обожавший стихи Верлена, погиб. Война закончилась, а жизнь Анны теперь свелась к поддержке пожилых родителей любимого и посещениям кладбища. Однажды там она видит незнакомого человека, который принес цветы на могилу Франца. Он, Адриен, - француз, а, значит, враг. Но встреча с ним переворачивает ее жизнь...
HDVideo : Yes
AppleStoreCatalogID : 1182674106
Vendor : Apple:vendor_id:2016-934350
ContentRating : ru-movie|16+|375|

Video #1
ID : 1
Format : AVC
Format/Info : Advanced Video Codec
Format profile : Main@L3.1
Format settings, CABAC : No
Format settings, ReFrames : 2 frames
Codec ID : avc1
Codec ID/Info : Advanced Video Coding
Duration : 1h 53mn
Bit rate : 4 103 Kbps
Width : 1 280 pixels
Height : 534 pixels
Display aspect ratio : 2.40:1
Frame rate mode : Variable
Frame rate : 24.000 fps
Minimum frame rate : 23.810 fps
Maximum frame rate : 24.390 fps
Color space : YUV
Chroma subsampling : 4:2:0
Bit depth : 8 bits
Scan type : Progressive
Bits/(Pixel*Frame) : 0.250
Stream size : 3.26 GiB (88%)
Title : Main Program
Language : French
Encoded date : UTC 2017-01-06 17:41:08
Tagged date : UTC 2017-01-06 17:42:22
Color range : Limited
Color primaries : BT.709
Transfer characteristics : BT.709
Matrix coefficients : BT.709

Video #2
ID : 5
Format : JPEG
Codec ID : jpeg
Duration : 1h 53mn
Bit rate mode : Variable
Bit rate : 506 bps
Width : 640 pixels
Height : 267 pixels
Display aspect ratio : 2.40:1
Frame rate mode : Variable
Frame rate : 0.002 fps
Minimum frame rate : 0.001 fps
Maximum frame rate : 0.003 fps
Color space : YUV
Chroma subsampling : 4:2:0
Bit depth : 8 bits
Compression mode : Lossy
Bits/(Pixel*Frame) : 1.481
Stream size : 463 KiB (0%)
Title : Chapter Images
Language : French
Encoded date : UTC 2017-01-06 17:42:26
Tagged date : UTC 2017-01-06 17:42:26

Audio #1
ID : 2
Format : AAC
Format/Info : Advanced Audio Codec
Format profile : LC
Codec ID : 40
Duration : 1h 53mn
Bit rate mode : Variable
Bit rate : 157 Kbps
Maximum bit rate : 214 Kbps
Channel(s) : 2 channels
Channel positions : Front: L R
Sampling rate : 48.0 KHz
Compression mode : Lossy
Stream size : 127 MiB (3%)
Title : Russian Stereo
Language : Russian
Encoded date : UTC 2017-01-06 17:41:08
Tagged date : UTC 2017-01-06 17:41:27

Audio #2
ID : 3
Format : AC-3
Format/Info : Audio Coding 3
Mode extension : CM (complete main)
Format settings, Endianness : Big
Codec ID : ac-3
Duration : 1h 53mn
Bit rate mode : Constant
Bit rate : 384 Kbps
Channel(s) : 6 channels
Channel positions : Front: L C R, Side: L R, LFE
Sampling rate : 48.0 KHz
Bit depth : 16 bits
Compression mode : Lossy
Stream size : 312 MiB (8%)
Title : Russian DD 5.1
Language : Russian
Encoded date : UTC 2017-01-06 17:41:08
Tagged date : UTC 2017-01-06 17:41:27

Menu #1
00:00:00.000 : 1
00:06:44.333 : 2
00:14:06.874 : 3
00:20:56.790 : 4
00:28:14.790 : 5
00:35:26.040 : 6
00:42:00.415 : 7
00:50:06.498 : 8
00:57:37.498 : 9
01:05:45.914 : 10
01:13:12.789 : 11
01:20:12.789 : 12
01:27:19.497 : 13
01:34:00.747 : 14
01:41:56.663 : 15

Menu #2
ID : 4
Codec ID : text
Duration : 1h 53mn
Language : French
Encoded date : UTC 2017-01-06 17:42:23
Tagged date : UTC 2017-01-06 17:42:23
00:00:00.000 : 1
00:06:44.333 : 2
00:14:06.874 : 3
00:20:56.790 : 4
00:28:14.790 : 5
00:35:26.040 : 6
00:42:00.415 : 7
00:50:06.498 : 8
00:57:37.498 : 9
01:05:45.914 : 10
01:13:12.789 : 11
01:20:12.789 : 12
01:27:19.497 : 13
01:34:00.747 : 14
01:41:56.663 : 15
Bit rate mode : VBR

<span class="post-font-serif1">
Релиз подготовлен для просмотра на Apple TV, iPad, iPhone, <a href="www.apple.com/ipodtouch/" class="postLink">iPod Touch</a>.
Для просмотра данного релиза на компьютере с ОС Windows рекомендуется использовать VLC media player</span>

Трекер:  [ 06-Янв-2017 20:00 ]

  

Скачать .torrent

Размер .torrent файла 37 KB


Размер: 3.69 GB
Хэш (hash) релиза: 80917d9b0e66075b520415a3ba68b567f0936384

Торренты, похожие на Франц Frantz скачать торрент

Форум Название Автор Размер S L Добавлен
Видео (iPhone/iPod Touch/iPad) ·· [ATV3] Франц / Frantz (Франсуа Озон / François Ozon ) [2016, Франция, Германия, Драма, WEB-DL, HD (1080p)] DUB Galfimbul 43618412724.06 GB 0 0 1483699851

13:50

6-Янв-17

Еще никто не оставлял запись к записи скачать торрент Франц Frantz . Будь первым!

!Обратная связь