Скачать через торрент Ван Пис: Золото One Piece Film: Gold бесплатно Аниме Все серии на русском torrent

Если у вас наблюдаются проблемы со скриншотами, переходом по ссылками, скачиванием торрентов - проблемы в блокировщике рекламы AdBlock. #хорошегоДня!


Статистика раздачи
Размер:  33.26 GB   |    Зарегистрирован:  8 месяцев   |    .torrent скачан:  26 раз   |   
Раздают:  1  
   
Загрузка...
 
Автор Сообщение

Galfimbul

avatar Galfimbul



Ван Пис: Золото / One Piece Film: Gold
Страна: Япония
Год выпуска: 2016
Жанр: приключения, комедия, фэнтези
Тип: Movie
Продолжительность: 127 мин.
Режиссер: Хироаки Миямото
Студия: Toei Animation
Субтитры:
Русские (внешние) ASS [Alvakarp]
Перевод: BadNewsZiggy
Редакция: Angara / Оформление: 3viaL
Описание: Команда Мугивары попадает на огромный лайнер Гран Тэзоро, который оказывается настоящим городом развлечений с непрекращающимися ни днем ни ночью шоу и казино, которое собирают богатейших людей со всего мира. Гран Тэзоро - это абсолютно неприкосновенная зона, признаная Мировым Правительством, поэтому будь то пират или дозорный, для всех в казино действуют одни правила.

Там Луффи и его друзья встречают хозяина корабля, человека, который с помощью силы золота подчинил и Мировое правительство и Мировую знать Тэнрюбито, Гильда Тэзоро. А за кулисами роскошного города развлечений стоит непреодолимая жажда господства, в водоворот которой попали слишком многие, и жестокий закон казино Гран Тэзоро: "Обманутый считается проигравшим". Что есть свобода и подчинение? В поисках ответа на этот вопрос Луффи и его друзья ставят на кон свою веру и жизни.
Качество: BDRemux
Тип релиза: Без хардсаба
Формат видео: MKV
Наличие линковки: Нет
Видео: AVC, 1920x1080, 38,0 Мбит/сек, 23,976 fps, 8 bit
Аудио JAP: 4086 Кбит/сек / 768 Кбит/сек, 48,0 КГц, 24 бит, 6 каналов, DTS(Big), (в составе контейнера)
ОбщееФормат : MatroskaВерсия формата : Version 4 / Version 2Размер файла : 33,3 ГбайтПродолжительность : 2 ч. 0 м.Режим общего битрейта : ПеременныйОбщий поток : 39,6 Мбит/секДата кодирования : UTC 2017-01-04 20:36:14Программа кодирования : mkvmerge v8.2.0 ('World of Adventure') 64bitБиблиотека кодирования : libebml v1.3.1 + libmatroska v1.4.2

ВидеоИдентификатор : 1Формат : AVCФормат/Информация : Advanced Video CodecПрофиль формата : High@L4.1Параметр CABAC формата : ДаПараметр ReFrames формата : 4 кадраИдентификатор кодека : V_MPEG4/ISO/AVCПродолжительность : 2 ч. 0 м.Вид битрейта : ПеременныйБитрейт : 35,6 Мбит/секМаксимальный битрейт : 38,0 Мбит/секШирина : 1920 пикселейВысота : 1080 пикселейСоотношение сторон : 16:9Режим частоты кадров : ПостоянныйЧастота кадров : 23,976 (24000/1001) кадра/секЦветовое пространство : YUVСубдискретизация насыщенности : 4:2:0Битовая глубина : 8 битТип развёртки : ПрогрессивнаяБит/(Пиксели*Кадры) : 0.715Размер потока : 29,8 Гбайт (90%)Default : ДаForced : Нет

АудиоИдентификатор : 2Формат : DTSФормат/Информация : Digital Theater SystemsПрофиль формата : MA / CoreРежим : 16Параметр Endianness формата : BigИдентификатор кодека : A_DTSПродолжительность : 2 ч. 0 м.Вид битрейта : Переменный / ПостоянныйБитрейт : 4086 Кбит/сек / 768 Кбит/секКаналы : 6 каналовРасположение каналов : Front: L C R, Side: L R, LFEЧастота : 48,0 КГцЧастота кадров : 93,750 кадра/сек (512 spf)Битовая глубина : 24 битМетод сжатия : Без потерь / LossyРазмер потока : 3,43 Гбайт (10%)Язык : JapaneseDefault : ДаForced : Нет


Трекер:  [ 06-Янв-2017 20:00 ]

  

Скачать .torrent

Размер .torrent файла 83 KB


Размер: 33.26 GB
Хэш (hash) релиза: 8960913a1e45853cd97f45ec5c4da1177f778955
Подписка на обновления:

Торренты, похожие на Ван Пис: Золото One Piece Film: Gold скачать торрент

Форум Название Автор Размер S L Добавлен
Аниме | Rips ·· Ван Пис: Золото / One Piece Film: Gold [Movie] [Без хардсаба] [RUS(int), JAP, SUB] [2016, приключения, комедия, фэнтези, BDRip] [720p] [HD] Galfimbul 34003948563.17 GB 0 0 1484330949

21:09

13-Янв-17

Аниме | Rips ·· Ван Пис: Золото / One Piece Film: Gold [Movie] [Без хардсаба] [RUS(int), JAP, SUB] [2016, приключения, комедия, фэнтези, BDRip] [HWP] Galfimbul 18114762851.69 GB 0 0 1484330945

21:09

13-Янв-17

Аниме | HD Rips ·· Ван Пис: Золото / One Piece Film: Gold [Movie] [Без хардсаба] [JAP, SUB] [2016, приключения, комедия, фэнтези, BDRip] [720p] Galfimbul 51796941384.82 GB 0 0 1484150470

19:01

11-Янв-17

Аниме | HD Rips ·· Ван Пис: Золото / One Piece Film: Gold [Movie] [Без хардсаба] [JAP, SUB] [2016, приключения, комедия, фэнтези, BDRip] [1080p] Galfimbul 1161768770610.82 GB 0 0 1484150466

19:01

11-Янв-17

Аниме | HD Rips ·· Ван Пис Фильм: Золото / One Piece Film: Gold [Movie] [без хардсаба] [RUS(ext), JAP+SUB] [2016, приключения, комедия, фэнтези, сёнэн, драма, BDRemux] [1080p] Galfimbul 3762999759235.05 GB 0 0 1485193330

20:42

23-Янв-17

Аниме | Rips ·· Ван Пис Фильм: Золото ~эпизод 0~ 711 ver / One Piece Film - Gold ~episode 0~ 711 ver [Special] [без хардсаба] [JAP+SUB] [2016, приключения, комедия, фэнтези, сёнэн, DVDRip] [1080p] Galfimbul 190841071182 MB 0 0 1485193306

20:41

23-Янв-17

Еще никто не оставлял запись к записи скачать торрент Ван Пис: Золото One Piece Film: Gold . Будь первым!

!Обратная связь