Скачать через торрент [SERIAL] Секретные материалы The X-Files бесплатно русская версия torrent активатор

Статистика раздачи
Размер:  8.62 GB   |    Зарегистрирован:  4 месяца 22 дня   |    .torrent скачан:  22 раза   |   
Раздают:  1  
   
 
Автор Сообщение

Galfimbul

avatar Galfimbul


Секретные материалы / The X-Files4 сезон
Год выпуска: 1995-1996
Страна: США
Жанр: фантастика, триллер, детектив
Продолжительность: ~00:45:00
Перевод: Профессиональный (дублированный) ТВ3
Субтитры: русские форсированные неотключаемые
Режиссер: Крис Картер / Chris Carter
В ролях: Дэвид Духовны, Джиллиан Андерсон, Митч Пиледжи, Роберт Патрик, Аннабет Гиш, Том Брэйдвуд, Уильям Б. Дэвис, Брюс Харвуд, Дин Хаглунд, Николас Ли.
Описание: Специальному агенту Дане Скалли, доктору и преподавателю академии ФБР в Вирджинии, поручают работу в паре с агентом Фоксом Малдером над проектом «Секретные материалы», архивом таинственных, нерешенных дел ФБР, которые зачастую связаны с паранормальными явлениями, случаями вампиризма и оборотничества, нападением генетических мутантов, свидетельствами о похищении людей пришельцами…

Малдер верит в пришельцев и пытается убедить скептика Скалли, что не всё и не всегда поддаётся разумному объяснению. В своих дискуссиях Малдер и Скалли не столько стараются убедить друг друга, сколько получают удовольствие от самого общения. Постепенно первоначальное взаимное недоверие перерастает в дружбу, а чуть позже и в более глубокое чувство.
Доп. информация: За исходное видео и субтитры спасибо <a href="profile.php?mode=viewprofile&u=13383530" class="postLink">-JokeR-</a>
<a href="tracker.php?f=287&nm=x%20files" class="postLink">Все раздачи сериала</a>
Качество: HDRip
Формат: MP4
Видео: MPEG-4 Visual, 640x360 (16:9), 1080 Kbps, 23,976 fps
Аудио: Русский, AAC, 2 ch, 128 Kbps, 48 KHz
<span class="post-font-mono1">4x01 — (074) Раса господ (Herrenvolk)
4x02 — (075) Дом (Home)
4x03 — (076) Телико (Teliko)
4x04 — (077) Беспорядок (Unruhe)
4x05 — (078) Поле, на котором я умер (The Field Where I Died)
4x06 — (079) Кровожадность (Sanguinarium)
4x07 — (080) Размышления курильщика (Musings of a Cigarette Smoking Man)
4x08 — (081) Тунгуска (Tunguska)
4x09 — (082) Терма (Terma)
4x10 — (083) Бумажные сердечки (Paper Hearts)
4x11 — (084) Мир вращается (El Mundo Gira)
4x12 — (085) Леонард Беттс (Leonard Betts)
4x13 — (086) Больше никогда (Never Again)
4x14 — (087) Помни о смерти (Memento Mori)
4x15 — (088) Каддиш (Kaddish)
4x16 — (089) Неотмщенный (Unrequited)
4x17 — (090) Время летит (Tempus Fugit)
4x18 — (091) Макс (Max)
4x19 — (092) Синхронность (Synchrony)
4x20 — (093) Пустяки (Small Potatoes)
4x21 — (094) Нулевой итог (Zero Sum)
4x22 — (095) Элегия (Elegy)
4x23 — (096) Демоны (Demons)
4x24 — (097) Гефсиманский сад (Gethsemane)</span>
ОбщееПолное имя : D:\Раздачи\X-Files.s04.HDRip.640x\4x01 Herrenvolk.mp4Формат : MPEG-4Профиль формата : Base Media / Version 2Идентификатор кодека : mp42 (isom/mp42/3gp5)Размер файла : 372 МбайтПродолжительность : 44 м.Режим общего битрейта : ПеременныйОбщий поток : 1181 Кбит/секДата кодирования : UTC 2016-11-29 05:39:01Дата пометки : UTC 2016-11-29 05:39:01

ВидеоИдентификатор : 201Формат : MPEG-4 VisualПрофиль формата : Simple@L1Параметр BVOP формата : НетПараметр QPel формата : НетПараметр GMC формата : Без точки переходаПараметр матрицы формата : Default (H.263)Идентификатор кодека : 20Продолжительность : 44 м.Вид битрейта : ПеременныйБитрейт : 1053 Кбит/секМаксимальный битрейт : 5678 Кбит/секШирина : 640 пикселейВысота : 360 пикселейСоотношение сторон : 16:9Режим частоты кадров : ПостоянныйЧастота кадров : 23,976 (24000/1001) кадра/секЦветовое пространство : YUVСубдискретизация насыщенности : 4:2:0Битовая глубина : 8 битТип развёртки : ПрогрессивнаяМетод сжатия : С потерямиБит/(Пиксели*Кадры) : 0.191Размер потока : 331 Мбайт (89%)Библиотека кодирования : Lavc52.30.2Дата кодирования : UTC 2016-11-29 05:39:01Дата пометки : UTC 2016-11-29 05:39:25

АудиоИдентификатор : 101Формат : AACФормат/Информация : Advanced Audio CodecПрофиль формата : LCИдентификатор кодека : 40Продолжительность : 44 м.Вид битрейта : ПеременныйБитрейт : 125 Кбит/секМаксимальный битрейт : 232 Кбит/секКаналы : 2 каналаРасположение каналов : Front: L RЧастота : 48,0 КГцЧастота кадров : 46,875 кадров/сек (1024 spf)Метод сжатия : С потерямиРазмер потока : 39,4 Мбайт (11%)Дата кодирования : UTC 2016-11-29 05:39:20Дата пометки : UTC 2016-11-29 05:39:25

Прочее #1Идентификатор : 2Тип : Object descriptionФормат : SystemИдентификатор кодека : 1Продолжительность : 1 с. 0 мс.Дата кодирования : UTC 2016-11-29 05:39:25Дата пометки : UTC 2016-11-29 05:39:25

Прочее #2Идентификатор : 1Тип : Scene descriptionФормат : System CoreИдентификатор кодека : 2Продолжительность : 1 с. 0 мс.Дата кодирования : UTC 2016-11-29 05:39:25Дата пометки : UTC 2016-11-29 05:39:25
1. Субтитры форсированные, присутствуют на необходимые экранные надписи (см. скриншоты)
2. Субтитры анимированные, т.е. присутствует эффект "печатной машинки" как в оригинале
3. Перевод субтитров сделан на основе перевода ТВ3, с некоторыми исправлениями
4. Субтитры неотключаемые, вшиты в видеоряд


Трекер:  [ 05-Янв-2017 15:30 ]

  

Скачать .torrent

Размер .torrent файла 44 KB


Размер: 8.62 GB
Хэш (hash) релиза: 9be08c3f458f2386be31cec0baf38f9c9ca84b80

Торренты, похожие на [SERIAL] Секретные материалы The X-Files скачать торрент

Форум Название Автор Размер S L Добавлен
Видео (Фильмы/Клипы) ·· [SERIAL] Секретные материалы / The X-Files / Сезон: 4 / Серии: 1-12 из 24 (Крис Картер / Chris Carter) [1996-1997, фантастика, триллер, детектив, HDRip] [MP4, 640x] Dub ТВ3 + Sub Rus (Forced) Galfimbul 47170902224.39 GB 0 0 1481706055

12:00

14-Дек-16

Еще никто не оставлял запись к записи скачать торрент [SERIAL] Секретные материалы The X-Files . Будь первым!

!Обратная связь