Скачать через торрент [VIDEO] Бэтмен против Супермена: На заре справедливости Batman v Superman: Dawn of Justice бесплатно русская версия torrent активатор

Если у вас наблюдаются проблемы со скриншотами, переходом по ссылками, скачиванием торрентов - проблемы в блокировщике рекламы AdBlock. #хорошегоДня!


Статистика раздачи
Размер:  2.26 GB   |    Зарегистрирован:  8 месяцев   |    .torrent скачан:  49 раз   |   
Раздают:  2  
   
Загрузка...
 
Автор Сообщение

Galfimbul

avatar Galfimbul



<span class="post-font-serif1">Бэтмен против Супермена: На заре справедливости / Batman v Superman: Dawn of Justice [Theatrical Cut]</span>

<span class="post-font-serif1">Год выпуска: 2016
Страна: США / Warner Bros. Pictures
Жанр: фантастика, боевик, приключения
Продолжительность: 02:31:40
Перевод №1: русский Профессиональный (полное дублирование) Blu-ray CEE
Перевод №2: Украинский Профессиональный (полное дублирование)
Оригинальная дорожка: Есть
Cубтитры: русские (Forced iTunes, iTunes), английские (Full, SDH)</span>
<span class="post-font-serif1">Режиссер: Зак Снайдер / Zack Snyder</span>
<span class="post-font-serif1">В ролях: Генри Кавилл, Бен Аффлек, Галь Гадот, Эми Адамс, Джесси Айзенберг, Джереми Айронс, Дайан Лэйн, Лоренс Фишбёрн, Холли Хантер, Скут МакНэйри, Каллэн Мулвей, Тао Окамото, Брэндон Спинк, Лорен Коэн, Алан Д. Первин, Марк Эдвард Тейлор, Хью Магвайр, Майкл Шеннон, Ханна Дворкин, Тиффани Л. Эддисон и другие .</span>
<span class="post-font-serif1">Описание: Опасаясь, что действия богоподобного супергероя так и останутся бесконтрольными, грозный и могущественный страж Готэм Сити бросает вызов самому почитаемому в наши дни спасителю Метрополиса, в то время как весь остальной мир решает, какой герой ему по-настоящему нужен. И пока Бэтмен и Супермен пребывают в состоянии войны друг с другом, возникает новая угроза, которая ставит человечество под самую большую опасность, с которой оно когда-либо сталкивалось.</span>
<span class="post-font-serif1">Релиз группы </span>
<span class="post-font-serif1">Качество: BDRip / <a href="viewtopic.php?t=5256144" class="postLink">рип с Blu-ray disc 1080p</a>
Формат: MP4
Видео кодек: H.264
Аудио кодек: AAC
Видео: 960x400 AR:2.40 1740 kbps 23.976 fps
Аудио №1: [Russian] 2ch 48 kHz 128 kbps - Профессиональный (полное дублирование) Blu-ray CEE
Аудио №2: [Ukrainian] 2ch 48 kHz 128 kbps - Профессиональный (полное дублирование)
Аудио №3: [English] 2ch 48 kHz 128 kbps - Оригинал</span>
avs [info]: 960x400p 1:1 @ 2997/125 fps (cfr)
x264 [info]: using SAR=1/1
x264 [info]: using cpu capabilities: MMX2 SSE2Fast SSSE3 SSE4.2 AVX FMA3 AVX2 LZCNT BMI2
x264 [info]: profile High, level 4.1

x264 [info]: frame I:1592 Avg QP:16.71 size: 48002
x264 [info]: frame P:53984 Avg QP:20.49 size: 17089
x264 [info]: frame B:162613 Avg QP:22.45 size: 6015
x264 [info]: consecutive B-frames: 4.5% 4.2% 8.7% 26.4% 16.7% 25.6% 6.2% 4.3% 2.0% 1.5%
x264 [info]: mb I I16..4: 8.8% 70.4% 20.8%
x264 [info]: mb P I16..4: 1.4% 10.5% 1.5% P16..4: 32.0% 36.6% 10.3% 0.0% 0.0% skip: 7.6%
x264 [info]: mb B I16..4: 0.1% 0.9% 0.1% B16..8: 38.3% 18.1% 3.3% direct: 4.6% skip:34.6% L0:44.9% L1:46.3% BI: 8.7%
x264 [info]: 8x8 transform intra:76.9% inter:60.5%
x264 [info]: direct mvs spatial:97.3% temporal:2.7%
x264 [info]: coded y,uvDC,uvAC intra: 78.8% 68.7% 37.4% inter: 25.1% 14.6% 3.4%
x264 [info]: i16 v,h,dc,p: 23% 18% 8% 51%
x264 [info]: i8 v,h,dc,ddl,ddr,vr,hd,vl,hu: 7% 6% 9% 10% 15% 14% 15% 11% 14%
x264 [info]: i4 v,h,dc,ddl,ddr,vr,hd,vl,hu: 8% 7% 6% 10% 16% 14% 15% 11% 14%
x264 [info]: i8c dc,h,v,p: 33% 31% 17% 18%
x264 [info]: Weighted P-Frames: Y:22.5% UV:16.3%
x264 [info]: ref P L0: 45.1% 9.3% 17.3% 7.4% 5.9% 4.3% 3.7% 2.1% 2.2% 2.0% 0.6% 0.2%
x264 [info]: ref B L0: 74.0% 10.7% 5.6% 2.8% 2.8% 1.6% 1.3% 0.6% 0.4%
x264 [info]: ref B L1: 94.5% 5.5%
x264 [info]: kb/s:1738.01

encoded 218189 frames, 13.90 fps, 1738.01 kb/s
GeneralComplete name : D:\Torrents\Batman v Superman Dawn of Justice.(Theatrical Cut).2016.BDRip.x264.960x.rip by Frost O.S.mp4Format : MPEG-4Format profile : Base MediaCodec ID : isom (isom/avc1/iso2)File size : 2.26 GiBDuration : 2 h 31 minOverall bit rate mode : VariableOverall bit rate : 2 137 kb/sMovie name : Batman v Superman Dawn of Justice (Theatrical Cut) 2016 BDRip x264 960x rip by Frost O SGenre : ActionContentType : Short FilmEncoded date : UTC 2017-01-04 08:35:34Tagged date : UTC 2017-01-04 08:39:46Writing application : MkvToMp4 version: 0.224 (x64)Cover : YesComment : rip by Frost O.SLongDescription : Опасаясь, что действия богоподобного супергероя так и останутся бесконтрольными, грозный и могущественный страж Готэм Сити бросает вызов самому почитаемому в наши дни спасителю Метрополиса, в то время как весь остальной мир решает, какой герой ему по-настоящему нужен. И пока Бэтмен и Супермен пребывают в состоянии войны друг с другом, возникает новая угроза, которая ставит человечество под самую большую опасность, с которой оно когда-либо сталкивалось.

VideoID : 1Format : AVCFormat/Info : Advanced Video CodecFormat profile : High@L4.1Format settings, CABAC : YesFormat settings, ReFrames : 10 framesCodec ID : avc1Codec ID/Info : Advanced Video CodingDuration : 2 h 31 minBit rate : 1 740 kb/sMaximum bit rate : 7 261 kb/sWidth : 960 pixelsHeight : 400 pixelsDisplay aspect ratio : 2.40:1Frame rate mode : ConstantFrame rate : 23.976 (24000/1001) FPSOriginal frame rate : 23.976 (23976/1000) FPSColor space : YUVChroma subsampling : 4:2:0Bit depth : 8 bitsScan type : ProgressiveBits/(Pixel*Frame) : 0.189Stream size : 1.84 GiB (81%)Writing library : x264 core 148 r2705 3f5ed56Encoding settings : cabac=1 / ref=10 / deblock=1:-2:-2 / analyse=0x3:0x113 / me=umh / subme=11 / psy=1 / psy_rd=1.05:0.00 / mixed_ref=1 / me_range=32 / chroma_me=1 / trellis=2 / 8x8dct=1 / cqm=0 / deadzone=21,11 / fast_pskip=0 / chroma_qp_offset=-2 / threads=6 / lookahead_threads=1 / sliced_threads=0 / nr=0 / decimate=0 / interlaced=0 / bluray_compat=0 / constrained_intra=0 / bframes=9 / b_pyramid=2 / b_adapt=2 / b_bias=0 / direct=3 / weightb=1 / open_gop=0 / weightp=2 / keyint=250 / keyint_min=23 / scenecut=40 / intra_refresh=0 / rc=2pass / mbtree=0 / bitrate=1740 / ratetol=1.0 / qcomp=0.70 / qpmin=0 / qpmax=69 / qpstep=4 / cplxblur=20.0 / qblur=0.5 / ip_ratio=1.40 / pb_ratio=1.30 / aq=2:0.90Language : EnglishEncoded date : UTC 2017-01-04 08:35:34Tagged date : UTC 2017-01-04 08:37:19Color range : LimitedColor primaries : BT.709Transfer characteristics : BT.709Matrix coefficients : BT.709

Audio #1ID : 2Format : AACFormat/Info : Advanced Audio CodecFormat profile : LCCodec ID : 40Duration : 2 h 31 minBit rate mode : VariableBit rate : 128 kb/sMaximum bit rate : 134 kb/sChannel(s) : 2 channelsChannel positions : Front: L RSampling rate : 48.0 kHzFrame rate : 46.875 FPS (1024 spf)Compression mode : LossyStream size : 139 MiB (6%)Title : Dub_ Blu_ray CEE / Dub_ Blu_ray CEELanguage : RussianDefault : YesAlternate group : 1Encoded date : UTC 2017-01-04 08:36:45Tagged date : UTC 2017-01-04 08:37:19

Audio #2ID : 3Format : AACFormat/Info : Advanced Audio CodecFormat profile : LCCodec ID : 40Duration : 2 h 31 minBit rate mode : VariableBit rate : 128 kb/sMaximum bit rate : 133 kb/sChannel(s) : 2 channelsChannel positions : Front: L RSampling rate : 48.0 kHzFrame rate : 46.875 FPS (1024 spf)Compression mode : LossyStream size : 139 MiB (6%)Title : Dub / DubLanguage : UkrainianDefault : NoAlternate group : 1Encoded date : UTC 2017-01-04 08:36:59Tagged date : UTC 2017-01-04 08:37:19

Audio #3ID : 4Format : AACFormat/Info : Advanced Audio CodecFormat profile : LCCodec ID : 40Duration : 2 h 31 minBit rate mode : VariableBit rate : 128 kb/sMaximum bit rate : 135 kb/sChannel(s) : 2 channelsChannel positions : Front: L RSampling rate : 48.0 kHzFrame rate : 46.875 FPS (1024 spf)Compression mode : LossyStream size : 139 MiB (6%)Title : Original / OriginalLanguage : EnglishDefault : NoAlternate group : 1Encoded date : UTC 2017-01-04 08:37:08Tagged date : UTC 2017-01-04 08:37:19

Text #1ID : 5Format : Timed TextMuxing mode : sbtlCodec ID : tx3gDuration : 2 h 31 minBit rate mode : VariableBit rate : 5 b/sStream size : 5.07 KiB (0%)Title : Forced_ iTunes / Forced_ iTunesLanguage : RussianDefault : YesForced : NoAlternate group : 2Encoded date : UTC 2017-01-04 08:37:18Tagged date : UTC 2017-01-04 08:37:19

Text #2ID : 6Format : Timed TextMuxing mode : sbtlCodec ID : tx3gDuration : 2 h 31 minBit rate mode : VariableBit rate : 62 b/sStream size : 68.6 KiB (0%)Title : iTunes / iTunesLanguage : RussianDefault : NoForced : NoAlternate group : 2Encoded date : UTC 2017-01-04 08:37:18Tagged date : UTC 2017-01-04 08:37:19

Text #3ID : 7Format : Timed TextMuxing mode : sbtlCodec ID : tx3gDuration : 2 h 22 minBit rate mode : VariableBit rate : 39 b/sStream size : 40.8 KiB (0%)Title : Full / FullLanguage : EnglishDefault : NoForced : NoAlternate group : 2Encoded date : UTC 2017-01-04 08:37:19Tagged date : UTC 2017-01-04 08:37:19

Text #4ID : 8Format : Timed TextMuxing mode : sbtlCodec ID : tx3gDuration : 2 h 31 minBit rate mode : VariableBit rate : 44 b/sStream size : 48.8 KiB (0%)Title : SDH / SDHLanguage : EnglishDefault : NoForced : NoAlternate group : 2Encoded date : UTC 2017-01-04 08:37:19Tagged date : UTC 2017-01-04 08:37:19


Трекер:  [ 04-Янв-2017 11:30 ]

  

Скачать .torrent

Размер .torrent файла 12 KB


Размер: 2.26 GB
Хэш (hash) релиза: 2525586730e2932ba2dd0390d914b8c55f47295f

Еще никто не оставлял запись к записи скачать торрент [VIDEO] Бэтмен против Супермена: На заре справедливости Batman v Superman: Dawn of Justice . Будь первым!

!Обратная связь