Скачать через торрент музыку бесплатно без регистрации torrent

Если у вас наблюдаются проблемы со скриншотами, переходом по ссылками, скачиванием торрентов - проблемы в блокировщике рекламы AdBlock. #хорошегоДня!


Статистика раздачи
Размер:  215 MB   |    Зарегистрирован:  8 месяцев   |    .torrent скачан:  19 раз   |   
Раздают:  1  
   
Загрузка...
 
Автор Сообщение

Galfimbul

avatar Galfimbul


<span class="post-font-serif1">Дэкалог / Dekalog</span>

<span class="post-font-serif1">[b]Жанр: Soundtrack, Classical
Носитель: CD
Страна-производитель диска (релиза): Poland
Год издания: 1991 (1992)
Издатель (лейбл): Kompania Muzyczna Pomaton
Номер по каталогу: POM CD 018
Страна исполнителя (группы): Poland
Аудиокодек: FLAC (*.flac)
Тип рипа: tracks+.cue
Битрейт аудио: lossless
Продолжительность: 00:52:39
Источник (релизер): Вата
Наличие сканов в содержимом раздачи: да
Discogs: discogs.com[/b]
MusicBrainz: MusicBrainz</span>

<span class="post-font-serif1">Треклист:
Décalogue I - Un Seul Dieu Tu Adoreras
01. Dekalog I - Czesc 6 (2:14)
02. Dekalog I - Czesc 5 (3:44)
Décalogue II - Tu Ne Commettras Point De Parjure
03. Dekalog II - Czesc 1 (1:21)
04. Dekalog II - Czesc 2 (4:01)
Décalogue III - Tu Respecteras Le Jour Du Seigneur
05. Dekalog III - Czesc 2 (2:30)
06. Dekalog III - Czesc 3 (2:39)
Décalogue IV - Tu Honoreras Ton Père Et Ta Mère
07. Dekalog IV - Czesc 1 (2:17)
08. Dekalog IV - Czesc 2 (2:30)
Décalogue V - Tu Ne Tueras Point
09. Dekalog V - Czesc 1 (1:43)
10. Dekalog V - Czesc 6 (1:41)
11. Dekalog V - Czesc 9 (1:12)
12. Dekalog V - Czesc 12 (1:28)
Décalogue VI - Tu Ne Seras Pas Luxurieux
13. Dekalog VI - Czesc 1 (1:49)
14. Dekalog VI - Czesc 2 (1:37)
15. Dekalog VI - Czesc 3 (0:51)
16. Dekalog VI - Czesc 4 (3:07)
Décalogue VII - Tu Ne Voleras Point
17. Dekalog VII - Czesc 6 (2:44)
18. Dekalog VII - Czesc 8 (1:55)
Décalogue VIII - Tu Ne Mentiras Pas
19. Dekalog VIII - Czesc 1 (1:09)
20. Dekalog VIII - Czesc 4 (3:37)
21. Dekalog VIII - Czesc 7 (1:52)
Décalogue IX - Tu Ne Convoiteras Pas La Femme D'Autrui
22. Dekalog IX - Czesc 3 (2:17)
23. Dekalog IX - Czesc 7 (1:05)
24. Dekalog IX - Czesc 12 (1:07)
25. Dekalog IX - Czesc 13 (2:10)</span>
.
<span class="post-font-serif1">«Декалог» — цикл из десяти телевизионных фильмов польского режиссёра Кшиштофа Кеслёвского, снятый в 1989 году. Фильмы не являются буквальной иллюстрацией десяти библейских заповедей. Более того, не каждый фильм возможно однозначно соотнести только с какой-либо одной заповедью. Ни в титрах, ни в тексте фильмов нет упоминаний или отсылок к конкретным заповедям, а попытки сделать это остаются не более чем частными, притом разными, мнениями киноведов.

Музыка для фильмов была написана Збигнев Прайснер (Zbigniew Preisner), запись была опубликована в 1991 году во Франции лейблом Amplitude. В 1992 году альбом был выпущен в Польше Kompania Music Pomaton. Саундтрек был переиздан еще три раза, в 2000 году, Dekalog (Original Film Soundtrack) Silva Classics в 2003 году MK2 Music пятн Decalogue и в 2012 году Sony Music снова называется Dekalog (Original Film Soundtrack).

Композиции были записаны польским Национальным Симфоническим оркестром радио в декабре 1984 года в студии Radiowego Domu.</span>
Exact Audio Copy V1.1 from 23. June 2015

EAC extraction logfile from 12. December 2015, 22:15

Zbigniew Preisner / Dekalog

Used drive : TSSTcorpCDDVDW SE-208GB Adapter: 1 ID: 0

Read mode : SecureUtilize accurate stream : YesDefeat audio cache : YesMake use of C2 pointers : No

Read offset correction : 6Overread into Lead-In and Lead-Out : NoFill up missing offset samples with silence : YesDelete leading and trailing silent blocks : NoNull samples used in CRC calculations : YesUsed interface : Native Win32 interface for Win NT & 2000Gap handling : Appended to previous track

Used output format : User Defined EncoderSelected bitrate : 1024 kBit/sQuality : HighAdd ID3 tag : NoCommand line compressor : C:\Program Files (x86)\Exact Audio Copy\Flac\flac.exeAdditional command line options : -8 -V -T "ARTIST=%artist%" -T "TITLE=%title%" -T "ALBUM=%albumtitle%" -T "DATE=%year%" -T "TRACKNUMBER=%tracknr%" -T "GENRE=%genre%" -T "PERFORMER=%albuminterpret%" -T "COMPOSER=%composer%" %haslyrics%--tag-from-file=LYRICS="%lyricsfile%"%haslyrics% -T "ALBUMARTIST=%albumartist%" -T "DISCNUMBER=%cdnumber%" -T "TOTALDISCS=%totalcds%" -T "TOTALTRACKS=%numtracks%" -T "COMMENT=%comment%" %source% -o %dest%

TOC of the extracted CD

Track | Start | Length | Start sector | End sector --------------------------------------------------------- 1 | 0:00.00 | 2:14.42 | 0 | 10091 2 | 2:14.42 | 3:43.72 | 10092 | 26888 3 | 5:58.39 | 1:20.59 | 26889 | 32947 4 | 7:19.23 | 4:01.05 | 32948 | 51027 5 | 11:20.28 | 2:30.07 | 51028 | 62284 6 | 13:50.35 | 2:38.45 | 62285 | 74179 7 | 16:29.05 | 2:17.30 | 74180 | 84484 8 | 18:46.35 | 2:29.48 | 84485 | 95707 9 | 21:16.08 | 1:42.72 | 95708 | 103429 10 | 22:59.05 | 1:40.68 | 103430 | 110997 11 | 24:39.73 | 1:12.16 | 110998 | 116413 12 | 25:52.14 | 1:27.71 | 116414 | 123009 13 | 27:20.10 | 1:49.26 | 123010 | 131210 14 | 29:09.36 | 1:37.10 | 131211 | 138495 15 | 30:46.46 | 0:50.52 | 138496 | 142297 16 | 31:37.23 | 3:07.09 | 142298 | 156331 17 | 34:44.32 | 2:43.55 | 156332 | 168611 18 | 37:28.12 | 1:54.51 | 168612 | 177212 19 | 39:22.63 | 1:09.04 | 177213 | 182391 20 | 40:31.67 | 3:36.54 | 182392 | 198645 21 | 44:08.46 | 1:52.12 | 198646 | 207057 22 | 46:00.58 | 2:17.03 | 207058 | 217335 23 | 48:17.61 | 1:04.45 | 217336 | 222180 24 | 49:22.31 | 1:07.20 | 222181 | 227225 25 | 50:29.51 | 2:11.21 | 227226 | 237071

Track 1

Filename C:\Rip\Zbigniew Preisner - Dekalog (1988) [FLAC]\01 - Dekalog I - Part 6.wav

Pre-gap length 0:00:02.00

Peak level 71.5 % Extraction speed 0.8 X Track quality 100.0 % Test CRC 4C475008 Copy CRC 4C475008 Cannot be verified as accurate (confidence 3) [05177B9D], AccurateRip returned [7EE5C714] (AR v2) Copy OK

Track 2

Filename C:\Rip\Zbigniew Preisner - Dekalog (1988) [FLAC]\02 - Dekalog I - Part 5.wav

Peak level 100.0 % Extraction speed 0.9 X Track quality 100.0 % Test CRC 88B9D84E Copy CRC 88B9D84E Cannot be verified as accurate (confidence 3) [10BAFCBF], AccurateRip returned [E86BC9BA] (AR v2) Copy OK

Track 3

Filename C:\Rip\Zbigniew Preisner - Dekalog (1988) [FLAC]\03 - Dekalog II - Part 1.wav

Peak level 99.8 % Extraction speed 0.7 X Track quality 100.0 % Test CRC 3EE0E7CE Copy CRC 3EE0E7CE Cannot be verified as accurate (confidence 3) [19D6F44E], AccurateRip returned [A9729074] (AR v2) Copy OK

Track 4

Filename C:\Rip\Zbigniew Preisner - Dekalog (1988) [FLAC]\04 - Dekalog II - Part 2.wav

Peak level 73.1 % Extraction speed 1.0 X Track quality 100.0 % Test CRC 03D8352E Copy CRC 03D8352E Cannot be verified as accurate (confidence 3) [C532BB77], AccurateRip returned [1C666512] (AR v2) Copy OK

Track 5

Filename C:\Rip\Zbigniew Preisner - Dekalog (1988) [FLAC]\05 - Dekalog III - Part 2.wav

Peak level 77.2 % Extraction speed 1.1 X Track quality 100.0 % Test CRC A9BF51C9 Copy CRC A9BF51C9 Cannot be verified as accurate (confidence 3) [1DA7A126], AccurateRip returned [F847F8B8] (AR v2) Copy OK

Track 6

Filename C:\Rip\Zbigniew Preisner - Dekalog (1988) [FLAC]\06 - Dekalog III - Part 3.wav

Peak level 55.1 % Extraction speed 1.3 X Track quality 100.0 % Test CRC D2D593E8 Copy CRC D2D593E8 Cannot be verified as accurate (confidence 3) [1E212A3C], AccurateRip returned [A4E44AB0] (AR v2) Copy OK

Track 7

Filename C:\Rip\Zbigniew Preisner - Dekalog (1988) [FLAC]\07 - Dekalog IV - Part 1.wav

Peak level 92.3 % Extraction speed 1.3 X Track quality 100.0 % Test CRC 3D9D08B4 Copy CRC 3D9D08B4 Cannot be verified as accurate (confidence 3) [3AD663A6], AccurateRip returned [0489DDC8] (AR v2) Copy OK

Track 8

Filename C:\Rip\Zbigniew Preisner - Dekalog (1988) [FLAC]\08 - Dekalog IV - Part 2.wav

Peak level 93.1 % Extraction speed 1.3 X Track quality 100.0 % Test CRC AA1BC46D Copy CRC AA1BC46D Cannot be verified as accurate (confidence 3) [33AAA8AD], AccurateRip returned [13D040B7] (AR v2) Copy OK

Track 9

Filename C:\Rip\Zbigniew Preisner - Dekalog (1988) [FLAC]\09 - Dekalog V - Part 1.wav

Peak level 95.1 % Extraction speed 1.2 X Track quality 100.0 % Test CRC 9D8E2FD2 Copy CRC 9D8E2FD2 Cannot be verified as accurate (confidence 3) [E497A10C], AccurateRip returned [67040234] (AR v2) Copy OK

Track 10

Filename C:\Rip\Zbigniew Preisner - Dekalog (1988) [FLAC]\10 - Dekalog V - Part 6.wav

Peak level 86.4 % Extraction speed 1.4 X Track quality 99.8 % Test CRC F00483DF Copy CRC F00483DF Cannot be verified as accurate (confidence 3) [3D5E8F9B], AccurateRip returned [59098388] (AR v2) Copy OK

Track 11

Filename C:\Rip\Zbigniew Preisner - Dekalog (1988) [FLAC]\11 - Dekalog V - Part 9.wav

Peak level 100.0 % Extraction speed 1.2 X Track quality 100.0 % Test CRC 523A2A75 Copy CRC 523A2A75 Cannot be verified as accurate (confidence 3) [A5E95CA7], AccurateRip returned [5575EA8A] (AR v2) Copy OK

Track 12

Filename C:\Rip\Zbigniew Preisner - Dekalog (1988) [FLAC]\12 - Dekalog V - Part 12.wav

Peak level 65.2 % Extraction speed 1.0 X Track quality 99.8 % Test CRC 67B06E55 Copy CRC 67B06E55 Cannot be verified as accurate (confidence 3) [2A949630], AccurateRip returned [99510B70] (AR v2) Copy OK

Track 13

Filename C:\Rip\Zbigniew Preisner - Dekalog (1988) [FLAC]\13 - Dekalog VI - Part 1.wav

Peak level 53.8 % Extraction speed 1.4 X Track quality 100.0 % Test CRC 5E7C2F67 Copy CRC 5E7C2F67 Cannot be verified as accurate (confidence 3) [4AC46461], AccurateRip returned [01CFACDC] (AR v2) Copy OK

Track 14

Filename C:\Rip\Zbigniew Preisner - Dekalog (1988) [FLAC]\14 - Dekalog VI - Part 2.wav

Peak level 32.6 % Extraction speed 1.0 X Track quality 100.0 % Test CRC 39CEA142 Copy CRC 39CEA142 Cannot be verified as accurate (confidence 3) [9626EFAE], AccurateRip returned [359002DB] (AR v2) Copy OK

Track 15

Filename C:\Rip\Zbigniew Preisner - Dekalog (1988) [FLAC]\15 - Dekalog VI - Part 3.wav

Peak level 37.9 % Extraction speed 1.0 X Track quality 100.0 % Test CRC F6D4132E Copy CRC F6D4132E Cannot be verified as accurate (confidence 3) [990E19E9], AccurateRip returned [57BCD050] (AR v2) Copy OK

Track 16

Filename C:\Rip\Zbigniew Preisner - Dekalog (1988) [FLAC]\16 - Dekalog VI - Part 4.wav

Peak level 91.2 % Extraction speed 1.6 X Track quality 100.0 % Test CRC E348F5CB Copy CRC E348F5CB Cannot be verified as accurate (confidence 3) [31B6C6FD], AccurateRip returned [417D4E7A] (AR v2) Copy OK

Track 17

Filename C:\Rip\Zbigniew Preisner - Dekalog (1988) [FLAC]\17 - Dekalog VII - Part 6.wav

Peak level 71.8 % Extraction speed 1.9 X Track quality 100.0 % Test CRC D8D9906E Copy CRC D8D9906E Cannot be verified as accurate (confidence 3) [ADBCEE92], AccurateRip returned [1130B574] (AR v2) Copy OK

Track 18

Filename C:\Rip\Zbigniew Preisner - Dekalog (1988) [FLAC]\18 - Dekalog VII - Part 8.wav

Peak level 68.9 % Extraction speed 1.8 X Track quality 100.0 % Test CRC C74A3CD0 Copy CRC C74A3CD0 Cannot be verified as accurate (confidence 3) [3A2699EA], AccurateRip returned [0A45789F] (AR v2) Copy OK

Track 19

Filename C:\Rip\Zbigniew Preisner - Dekalog (1988) [FLAC]\19 - Dekalog VIII - Part 6.wav

Peak level 100.0 % Extraction speed 1.1 X Track quality 99.8 % Test CRC 2533B5C7 Copy CRC 2533B5C7 Cannot be verified as accurate (confidence 3) [E842CF66], AccurateRip returned [02EAF14F] (AR v2) Copy OK

Track 20

Filename C:\Rip\Zbigniew Preisner - Dekalog (1988) [FLAC]\20 - Dekalog VIII - Part 5.wav

Peak level 86.5 % Extraction speed 1.7 X Track quality 100.0 % Test CRC 068029E6 Copy CRC 068029E6 Cannot be verified as accurate (confidence 3) [EFA25B77], AccurateRip returned [887FB7F8] (AR v2) Copy OK

Track 21

Filename C:\Rip\Zbigniew Preisner - Dekalog (1988) [FLAC]\21 - Dekalog VIII - Part 5.wav

Peak level 77.6 % Extraction speed 1.8 X Track quality 100.0 % Test CRC 7BF7D6E7 Copy CRC 7BF7D6E7 Cannot be verified as accurate (confidence 3) [5EC65D4A], AccurateRip returned [16B0C7C0] (AR v2) Copy OK

Track 22

Filename C:\Rip\Zbigniew Preisner - Dekalog (1988) [FLAC]\22 - Dekalog IX - Part 3.wav

Peak level 93.2 % Extraction speed 1.4 X Track quality 100.0 % Test CRC DCF160A9 Copy CRC DCF160A9 Cannot be verified as accurate (confidence 2) [51DB68D4], AccurateRip returned [4F402891] (AR v2) Copy OK

Track 23

Filename C:\Rip\Zbigniew Preisner - Dekalog (1988) [FLAC]\23 - Dekalog IX - Part 7.wav

Peak level 71.1 % Extraction speed 0.9 X Track quality 100.0 % Test CRC F7A5ECAA Copy CRC F7A5ECAA Cannot be verified as accurate (confidence 2) [BDC63199], AccurateRip returned [48D26BEB] (AR v2) Copy OK

Track 24

Filename C:\Rip\Zbigniew Preisner - Dekalog (1988) [FLAC]\24 - Dekalog IX - Part 12.wav

Peak level 59.6 % Extraction speed 2.3 X Track quality 100.0 % Test CRC 81FA95FA Copy CRC 81FA95FA Cannot be verified as accurate (confidence 2) [178B0C7B], AccurateRip returned [1ED8A1A3] (AR v2) Copy OK

Track 25

Filename C:\Rip\Zbigniew Preisner - Dekalog (1988) [FLAC]\25 - Dekalog IX - Part 13.wav

Peak level 92.6 % Extraction speed 2.1 X Track quality 100.0 % Test CRC 874061E2 Copy CRC 874061E2 Cannot be verified as accurate (confidence 3) [FDF55140], AccurateRip returned [617AAB4D] (AR v2) Copy OK

No tracks could be verified as accurateYou may have a different pressing from the one(s) in the database

No errors occurred

End of status report

---- CUETools DB Plugin V2.1.6

[CTDB TOCID: _479x.rs_LHVE6ykR8cBJzteaTw-] foundSubmit result: _479x.rs_LHVE6ykR8cBJzteaTw- has been confirmedTrack | CTDB Status 1 | ( 6/11) Accurately ripped 2 | ( 6/11) Accurately ripped 3 | ( 6/11) Accurately ripped 4 | ( 6/11) Accurately ripped 5 | ( 6/11) Accurately ripped 6 | ( 6/11) Accurately ripped 7 | ( 6/11) Accurately ripped 8 | ( 6/11) Accurately ripped 9 | ( 6/11) Accurately ripped 10 | ( 6/11) Accurately ripped 11 | ( 6/11) Accurately ripped 12 | ( 6/11) Accurately ripped 13 | ( 6/11) Accurately ripped 14 | ( 6/11) Accurately ripped 15 | ( 6/11) Accurately ripped 16 | ( 6/11) Accurately ripped 17 | ( 6/11) Accurately ripped 18 | ( 6/11) Accurately ripped 19 | ( 6/11) Accurately ripped 20 | ( 6/11) Accurately ripped 21 | ( 6/11) Accurately ripped 22 | ( 6/11) Accurately ripped 23 | ( 6/11) Accurately ripped 24 | ( 6/11) Accurately ripped 25 | ( 6/11) Accurately ripped

==== Log checksum 10974740066C184A507CDFF36893C7B618CE0CD81E251FE04D8985963140B7B4 ====
REM GENRE SoundtrackREM DATE 1988REM DISCID 6C0C5819REM COMMENT "ExactAudioCopy v1.1"PERFORMER "Zbigniew Preisner"TITLE "Dekalog"FILE "01 - Dekalog I - Part 6.wav" WAVE TRACK 01 AUDIO TITLE "Dekalog I - Part 6" PERFORMER "Zbigniew Preisner" ISRC GBE7J1106001 INDEX 01 00:00:00FILE "02 - Dekalog I - Part 5.wav" WAVE TRACK 02 AUDIO TITLE "Dekalog I - Part 5" PERFORMER "Zbigniew Preisner" ISRC GBE7J1106002 INDEX 01 00:00:00FILE "03 - Dekalog II - Part 1.wav" WAVE TRACK 03 AUDIO TITLE "Dekalog II - Part 1" PERFORMER "Zbigniew Preisner" ISRC GBE7J1106003 INDEX 01 00:00:00FILE "04 - Dekalog II - Part 2.wav" WAVE TRACK 04 AUDIO TITLE "Dekalog II - Part 2" PERFORMER "Zbigniew Preisner" ISRC GBE7J1106004 INDEX 01 00:00:00FILE "05 - Dekalog III - Part 2.wav" WAVE TRACK 05 AUDIO TITLE "Dekalog III - Part 2" PERFORMER "Zbigniew Preisner" ISRC GBE7J1106005 INDEX 01 00:00:00FILE "06 - Dekalog III - Part 3.wav" WAVE TRACK 06 AUDIO TITLE "Dekalog III - Part 3" PERFORMER "Zbigniew Preisner" ISRC GBE7J1106006 INDEX 01 00:00:00FILE "07 - Dekalog IV - Part 1.wav" WAVE TRACK 07 AUDIO TITLE "Dekalog IV - Part 1" PERFORMER "Zbigniew Preisner" ISRC GBE7J1106007 INDEX 01 00:00:00FILE "08 - Dekalog IV - Part 2.wav" WAVE TRACK 08 AUDIO TITLE "Dekalog IV - Part 2" PERFORMER "Zbigniew Preisner" ISRC GBE7J1106008 INDEX 01 00:00:00FILE "09 - Dekalog V - Part 1.wav" WAVE TRACK 09 AUDIO TITLE "Dekalog V - Part 1" PERFORMER "Zbigniew Preisner" ISRC GBE7J1106009 INDEX 01 00:00:00FILE "10 - Dekalog V - Part 6.wav" WAVE TRACK 10 AUDIO TITLE "Dekalog V - Part 6" PERFORMER "Zbigniew Preisner" ISRC GBE7J1106010 INDEX 01 00:00:00FILE "11 - Dekalog V - Part 9.wav" WAVE TRACK 11 AUDIO TITLE "Dekalog V - Part 9" PERFORMER "Zbigniew Preisner" ISRC GBE7J1106011 INDEX 01 00:00:00FILE "12 - Dekalog V - Part 12.wav" WAVE TRACK 12 AUDIO TITLE "Dekalog V - Part 12" PERFORMER "Zbigniew Preisner" ISRC GBE7J1106012 INDEX 01 00:00:00FILE "13 - Dekalog VI - Part 1.wav" WAVE TRACK 13 AUDIO TITLE "Dekalog VI - Part 1" PERFORMER "Zbigniew Preisner" ISRC GBE7J1106013 INDEX 01 00:00:00FILE "14 - Dekalog VI - Part 2.wav" WAVE TRACK 14 AUDIO TITLE "Dekalog VI - Part 2" PERFORMER "Zbigniew Preisner" ISRC GBE7J1106014 INDEX 01 00:00:00FILE "15 - Dekalog VI - Part 3.wav" WAVE TRACK 15 AUDIO TITLE "Dekalog VI - Part 3" PERFORMER "Zbigniew Preisner" ISRC GBE7J1106015 INDEX 01 00:00:00FILE "16 - Dekalog VI - Part 4.wav" WAVE TRACK 16 AUDIO TITLE "Dekalog VI - Part 4" PERFORMER "Zbigniew Preisner" ISRC GBE7J1106016 INDEX 01 00:00:00FILE "17 - Dekalog VII - Part 6.wav" WAVE TRACK 17 AUDIO TITLE "Dekalog VII - Part 6" PERFORMER "Zbigniew Preisner" ISRC GBE7J1106017 INDEX 01 00:00:00FILE "18 - Dekalog VII - Part 8.wav" WAVE TRACK 18 AUDIO TITLE "Dekalog VII - Part 8" PERFORMER "Zbigniew Preisner" ISRC GBE7J1106018 INDEX 01 00:00:00FILE "19 - Dekalog VIII - Part 6.wav" WAVE TRACK 19 AUDIO TITLE "Dekalog VIII - Part 6" PERFORMER "Zbigniew Preisner" ISRC GBE7J1106019 INDEX 01 00:00:00FILE "20 - Dekalog VIII - Part 5.wav" WAVE TRACK 20 AUDIO TITLE "Dekalog VIII - Part 5" PERFORMER "Zbigniew Preisner" ISRC GBE7J1106020 INDEX 01 00:00:00FILE "21 - Dekalog VIII - Part 5.wav" WAVE TRACK 21 AUDIO TITLE "Dekalog VIII - Part 5" PERFORMER "Zbigniew Preisner" ISRC GBE7J1106021 INDEX 01 00:00:00FILE "22 - Dekalog IX - Part 3.wav" WAVE TRACK 22 AUDIO TITLE "Dekalog IX - Part 3" PERFORMER "Zbigniew Preisner" ISRC GBE7J1106022 INDEX 01 00:00:00FILE "23 - Dekalog IX - Part 7.wav" WAVE TRACK 23 AUDIO TITLE "Dekalog IX - Part 7" PERFORMER "Zbigniew Preisner" ISRC GBE7J1106023 INDEX 01 00:00:00FILE "24 - Dekalog IX - Part 12.wav" WAVE TRACK 24 AUDIO TITLE "Dekalog IX - Part 12" PERFORMER "Zbigniew Preisner" ISRC GBE7J1106024 INDEX 01 00:00:00FILE "25 - Dekalog IX - Part 13.wav" WAVE TRACK 25 AUDIO TITLE "Dekalog IX - Part 13" PERFORMER "Zbigniew Preisner" ISRC GBE7J1106025 INDEX 01 00:00:00


Трекер:  [ 01-Янв-2017 23:00 ]

  

Скачать .torrent

Размер .torrent файла 4 KB


Размер: 215 MB
Хэш (hash) релиза: cd3fc54dc9db9fd30f9bc0c19eddf5d5df7e97cd

Еще никто не оставлял запись к записи скачать торрент . Будь первым!

!Обратная связь