Скачать через торрент Кибер-виток Dennou Coil бесплатно Аниме Все серии на русском torrent

Если у вас наблюдаются проблемы со скриншотами, переходом по ссылками, скачиванием торрентов - проблемы в блокировщике рекламы AdBlock. #хорошегоДня!


Статистика раздачи
Размер:  8.45 GB   |    Зарегистрирован:  8 месяцев   |    .torrent скачан:  14 раз   |   
Раздают:  1  
   
Загрузка...
 
Автор Сообщение

Galfimbul

avatar Galfimbul


Кибер-виток / Dennou Coil / Cyber Coil

Страна: Япония
Год выпуска: 2007
Жанр: приключения, комедия, драма, фантастика
Тип: TV
Продолжительность: 26 эп. по 25 мин.
Режиссер: Исо Мицуо
Студия: Madhouse Studios
Описание: Юко Оконоги, шестиклассница, переезжает с семьей (папа, мама, несносная младшая сестра) в родной город отца, Дайкоку.
Одиннадцать лет назад по всему миру распространилось удивительное изобретение – кибер-очки, способные соединяться с Сетью и показывать различную информацию, накладывая ее изображение на «картинку» реальности. Это привычно для Юко; но тут, в Дайкоку, киберпространство какое-то странное: здесь водятся кибер-«нелегалы», юные детективы-хакеры и зловещие кодировщики, а по улицам разгуливают огромные антивирусные программы...
© Анастасия Розанова
Информационные ссылки: AniDB || MyAnimeList || World Art
Качество: BDRip
Тип релиза: Без хардсаба
Формат видео: MP4
Наличие линковки: Нет
Релиз/Автор рипа: YYDM-11FANS
Видео: AVC, Hi10p, 1280x720, 23.976 кадр/сек, ~1500 кбит/сек
Аудио 1: Jap, AAC, 2 ch, 190 кбит/сек, 48 кГц
Аудио 2: Rus, AC3, 6 ch, 448 кбит/сек, 48 кГц (внешним файлом)
Озвучка: Tori (мужская, одноголосая)

Субтитры 1: Rus, ASS, внешними файлами
Переводчик/Оформление: fedor
Переводчик/Редактор: TJ
Перевод песен: Hollow

Субтитры 2: Rus, ASS, внешними файлами
Перевод: Advokat
Редактура: DM85 & silencess
Тайминг: DM85
Оформление: silencess

Отдельное спасибо Head_CaT за правку и подгонку субтитров под БД
ВидеоИдентификатор : 1Формат : AVCФормат/Информация : Advanced Video CodecПрофиль формата : High 10@L4.1Параметр CABAC формата : ДаПараметр ReFrames формата : 9 кадровИдентификатор кодека : avc1Идентификатор кодека/Информация : Advanced Video CodingПродолжительность : 25 м. 4 с.Битрейт : 1509 Кбит/секМаксимальный битрейт : 7440 Кбит/секШирина : 1280 пикселейВысота : 720 пикселейСоотношение сторон : 16:9Режим частоты кадров : ПостоянныйЧастота кадров : 23,976 (24000/1001) кадра/секЦветовое пространство : YUVСубдискретизация насыщенности : 4:2:0Битовая глубина : 10 битТип развёртки : ПрогрессивнаяБит/(Пиксели*Кадры) : 0.068Размер потока : 271 Мбайт (90%)Библиотека кодирования : x264 core 148 r2638+15+39 4c8540c Yuuki [10-bit@all X86_64][GCC 5.2.0]Настройки программы : cabac=1 / ref=9 / deblock=1:0:0 / analyse=0x3:0x133 / me=tesa / subme=11 / psy=1 / fade_compensate=0.00 / psy_rd=1.00:0.00 / mixed_ref=1 / me_range=24 / chroma_me=1 / trellis=2 / 8x8dct=1 / cqm=0 / deadzone=21,11 / fast_pskip=0 / chroma_qp_offset=-2 / threads=22 / lookahead_threads=5 / sliced_threads=0 / nr=0 / decimate=1 / interlaced=0 / bluray_compat=0 / constrained_intra=0 / fgo=0 / bframes=16 / b_pyramid=2 / b_adapt=2 / b_bias=0 / direct=3 / weightb=1 / open_gop=0 / weightp=2 / keyint=240 / keyint_min=1 / scenecut=40 / intra_refresh=0 / rc_lookahead=60 / rc=crf / mbtree=1 / crf=19.0000 / qcomp=0.60 / qpmin=0:0:0 / qpmax=81:81:81 / qpstep=4 / ip_ratio=1.40 / aq=1:1.00Дата кодирования : UTC 2015-12-31 13:11:18Дата пометки : UTC 2015-12-31 13:11:20

АудиоИдентификатор : 2Формат : AACФормат/Информация : Advanced Audio CodecПрофиль формата : LCИдентификатор кодека : 40Продолжительность : 25 м. 4 с.Вид битрейта : ПеременныйБитрейт : 165 Кбит/секМаксимальный битрейт : 213 Кбит/секКаналы : 2 каналаРасположение каналов : Front: L RЧастота : 48,0 КГцЧастота кадров : 46,875 кадров/сек (1024 spf)Метод сжатия : С потерямиРазмер потока : 29,5 Мбайт (10%)Язык : JapaneseДата кодирования : UTC 2015-12-31 13:10:43Дата пометки : UTC 2015-12-31 13:11:20
01. Дети в очках
02. Виток - Агенство киберраследований
03. Юко и Юко
04. Юко Амасава
05. Всхватка за метабаги - Автобусное кладбище
06. Красный автомат
07. На выход! Агенство киберраследований Виток
08. Летний фестиваль и поединок
09. Микито с другой стороны
10. Дневник Канны
11. Дайкоку! Погружение!
12. Первые волосы у Даити
13. Последний плезиозавр
14. Хроники животного
15. Мальчик с другой стороны станции
16. Больничная палата Исако
17. Последние летние каникулы
18. Дверь в другой мир
19. Черные гости
20. Канна и Ясако
21. Черный автомат
22. Последний виток
23. Исполненное желание
24. Дети, которые выбросили очки
25. Город Канадзава - перекресток Хадзама
26. Ясако и Исако
<a href="viewtopic.php?t=4309797" class="postLink">...4309797</a>
BDRip 720p

<a href="viewtopic.php?t=3978663" class="postLink">...3978663</a>
BDRip 720p
Наличие озвучки
Отсутствие линковки

<a href="viewtopic.php?t=3975832" class="postLink">...3975832</a>
Наличие озвучки
Отсутствие линковки
Значительно меньший объем раздачи
Сравнение скриншотов

<a href="viewtopic.php?t=554739" class="postLink">...554739</a>
Наличие озвучки
BDRip

<a href="viewtopic.php?t=1998089" class="postLink">...1998089</a>
BDRip

<a href="viewtopic.php?t=405263" class="postLink">...405263</a>
Наличие озвучки
BDRip


Трекер:  [ 01-Янв-2017 15:30 ]

  

Скачать .torrent

Размер .torrent файла 37 KB


Размер: 8.45 GB
Хэш (hash) релиза: b28274dfadf6495a0eadb35140e716bbe98ece63
Подписка на обновления:

Еще никто не оставлял запись к записи скачать торрент Кибер-виток Dennou Coil . Будь первым!

!Обратная связь