Скачать через торрент [MULTSERIAL] Мой Маленький Пони: Дружба Это Магия My Little Pony: Friendship Is Magic Фильм бесплатно в хорошем качестве torrent

Скачивайте на UnionPeer.org фильмы через торрент без регистрации. Новинки кино в хорошем качестве через торрент. На UnionPeer.org можно скачать через торрент фильмы 2014 и 2015 годов. Самые новые фильмы.

Скачать торрент [MULTSERIAL] Мой Маленький Пони: Дружба Это Магия My Little Pony: Friendship Is Magic бесплатно через .torrent фильм мультфильм сериал

Статистика раздачи
Размер:  1.97 GB   |    Зарегистрирован:  4 месяца 30 дней   |    .torrent скачан:  39 раз   |   
Раздают:  1  
   
 
Автор Сообщение

Galfimbul

avatar Galfimbul


<span class="post-font-serif1">Мой Маленький Пони: Дружба Это Магия</span>
Оригинальное название: My Little Pony: Friendship Is Magic
Год выпуска: 2015-2016 г.
Страна: США, Канада
Жанр: Приключения/Комедия/Семейный
Продолжительность: ~00:22:04
Кол-во Сезонов: 1 из 6 <a href="viewtopic.php?t=3576575" class="postLink">(Сезон 1)</a>,<a href="viewtopic.php?t=4212885" class="postLink">(Сезон 2)</a>,<a href="viewtopic.php?t=4378998" class="postLink">(Сезон 3)</a>, <a href="viewtopic.php?t=4826578" class="postLink">(Сезон 4)</a>, <a href="viewtopic.php?t=5133259" class="postLink">(Сезон 5)</a>
Кол-во Серий: 26 из 26
Перевод: Субтитры (версия от Anon2Anon)
Режиссер: Лорен Фауст / Lauren Faust
Описание: Старлайт Глиммер присоединяется к главной шестёрки персонажей.
Новый мультсериал от Hasbro про пони был задуман для детей младшего возраста. Однако по мере выхода сериал оказался популярным и у более взрослой аудитории.
Качество видео: WebRip <a href="viewtopic.php?t=5197317" class="postLink">(исходник)</a>
Формат: MP4
Видео кодек: H.264
Аудио кодек: AAC
Видео: x264, 480x272, ~355 Kbps, 23.976 fps
Аудио: AAC, 48.0 KHz, ~144 Kbps, 2ch
General
Complete name : \\DISKSTATION\raid0\Mults\MLP\PSP\My Little Pony SE06\MLP-FiM S06E01 The Crystalling - Part 1.mp4
Format : MPEG-4
Format profile : Base Media
Codec ID : isom (isom/avc1)
File size : 79.1 MiB
Duration : 22 min 5 s
Overall bit rate mode : Variable
Overall bit rate : 501 kb/s
Encoded date : UTC 2016-12-27 11:37:18
Tagged date : UTC 2016-12-27 11:37:18

Video
ID : 1
Format : AVC
Format/Info : Advanced Video Codec
Format profile : Main@L3
Format settings, CABAC : Yes
Format settings, ReFrames : 3 frames
Codec ID : avc1
Codec ID/Info : Advanced Video Coding
Duration : 22 min 4 s
Bit rate : 355 kb/s
Maximum bit rate : 1 567 kb/s
Width : 480 pixels
Height : 272 pixels
Display aspect ratio : 16:9
Frame rate mode : Constant
Frame rate : 23.976 (24000/1001) FPS
Color space : YUV
Chroma subsampling : 4:2:0
Bit depth : 8 bits
Scan type : Progressive
Bits/(Pixel*Frame) : 0.113
Stream size : 56.1 MiB (71%)
Writing library : x264 core 130 r2273 b3065e6
Encoding settings : cabac=1 / ref=3 / deblock=1:0:0 / analyse=0x1:0x111 / me=tesa / subme=10 / psy=1 / psy_rd=0.40:0.00 / mixed_ref=1 / me_range=16 / chroma_me=1 / trellis=2 / 8x8dct=0 / cqm=0 / deadzone=21,11 / fast_pskip=0 / chroma_qp_offset=-2 / threads=12 / lookahead_threads=1 / sliced_threads=0 / nr=0 / decimate=1 / interlaced=0 / bluray_compat=0 / constrained_intra=0 / bframes=3 / b_pyramid=0 / b_adapt=2 / b_bias=0 / direct=3 / weightb=1 / open_gop=0 / weightp=2 / keyint=250 / keyint_min=23 / scenecut=40 / intra_refresh=0 / rc_lookahead=60 / rc=crf / mbtree=1 / crf=22.0 / qcomp=0.80 / qpmin=0 / qpmax=69 / qpstep=4 / ip_ratio=1.40 / aq=1:0.60
Encoded date : UTC 2016-12-27 11:37:18
Tagged date : UTC 2016-12-27 11:38:13

Audio
ID : 2
Format : AAC
Format/Info : Advanced Audio Codec
Format profile : LC
Codec ID : 40
Duration : 22 min 5 s
Bit rate mode : Variable
Bit rate : 144 kb/s
Maximum bit rate : 173 kb/s
Channel(s) : 2 channels
Channel positions : Front: L R
Sampling rate : 48.0 kHz
Frame rate : 46.875 FPS (1024 spf)
Compression mode : Lossy
Stream size : 22.5 MiB (28%)
Encoded date : UTC 2016-12-27 11:37:44
Tagged date : UTC 2016-12-27 11:38:13
01. The Crystalling - Part 1
02. The Crystalling - Part 2
03. The Gift of the Maud Pie
04. On Your Marks
05. Gauntlet of Fire
06. No Second Prances
07. Newbie Dash
08. A Hearth's Warming Tail
09. The Saddle Row Review
10. Applejack's Day "Off"
11. Flutter Brutter
12. Spice Up Your Life
13. Stranger Than Fan Fiction
14. The Cart Before the Ponies
15. 28 Pranks Later
16. The Times They Are a Changeling
17. Dungeons & Discords
18. Buckball Season
19. The Fault in Our Cutie Marks
20. Viva Las Pegasus
21. Every Little Thing She Does
22. P.P.O.V. (Pony Point of View)
23. Where the Apple Lies
24. Top Bolt
25. To Where and Back Again - Part 1
26. To Where and Back Again - Part 2


Трекер:  [ 29-Дек-2016 09:00 ]

  

Скачать .torrent

Размер .torrent файла 23 KB


Размер: 1.97 GB
Хэш (hash) релиза: 9079a93fcb2a82227ebb9277618ff24b2b4bf75a
Подписка на обновления:

Еще никто не оставлял запись к записи скачать торрент [MULTSERIAL] Мой Маленький Пони: Дружба Это Магия My Little Pony: Friendship Is Magic . Будь первым!

!Обратная связь