Скачать через торрент музыку Братец Медвежонок Brother Bear бесплатно без регистрации torrent

Если у вас наблюдаются проблемы со скриншотами, переходом по ссылками, скачиванием торрентов - проблемы в блокировщике рекламы AdBlock. #хорошегоДня!


Статистика раздачи
Размер:  357 MB   |    Зарегистрирован:  8 месяцев   |    .torrent скачан:  39 раз   |   
Раздают:  1  
   
Загрузка...
 
Автор Сообщение

Galfimbul

avatar Galfimbul


Братец Медвежонок ● Brother Bear
ЖанрGenre: Soundtrack / Score
КомпозиторComposer: Mark Mancina & Phil Collins
Год выпуска дискаCD release: 2003
Год выпуска фильмаMovie release: 2003
Производитель дискаCD manufacturer: USA
Издатель (лейбл)Label: Walt Disney Records
Номер по каталогуCatalog #: 60127-7
АудиокодекCodec: FLAC (*.flac)
Тип рипаRip type: tracks+.cue
Битрейт аудиоBit rate: lossless
ПродолжительностьDuration: 00:48:48
ИсточникSource: собственный рип ● own rip
Наличие сканов в раздачeScans included: 600 dpi JPG
СсылкиLinks: Кинопоиск | IMDB | Wikipedia | SoundtrackCollector
MP3: <a href="viewtopic.php?t=863690" class="postLink">(Soundtrack) Phil Collins, Mark Mancina & VA - Brother Bear / Братец Медвежонок - 2003, MP3, 320 kb/s</a>
01. Phil Collins - Look Through My Eyes [0:04:00.46]
02. Tina Turner - Great Spirits [0:03:23.77]
03. Phil Collins - Welcome [0:03:38.09]
04. Phil Collins - No Way Out Single Version [0:04:17.52]
05. Bulgarian Women's Choir - Transformation [0:02:28.93]
06. Phil Collins - On My Way [0:03:40.29]
07. Blind Boys Of Alabama - Welcome [0:03:13.76]
08. Phil Collins - No Way Out [0:02:37.57]
09. Phil Collins - Transformation [0:02:25.37]
10. Mark Mancina - Three Brothers [0:06:44.44]
11. Mark Mancina - Awakes As A Bear [0:06:48.14]
12. Mark Mancina - Wilderness Of Danger And Beauty [0:05:30.06]
Exact Audio Copy V1.0 beta 2 from 29. April 2011

EAC extraction logfile from 24. September 2011, 23:31

Various / Brother Bear

Used drive : TSSTcorpCDDVDW TS-U633J Adapter: 0 ID: 1

Read mode : SecureUtilize accurate stream : YesDefeat audio cache : YesMake use of C2 pointers : No

Read offset correction : 6Overread into Lead-In and Lead-Out : NoFill up missing offset samples with silence : YesDelete leading and trailing silent blocks : NoNull samples used in CRC calculations : YesUsed interface : Native Win32 interface for Win NT & 2000Gap handling : Appended to previous track

Used output format : User Defined EncoderSelected bitrate : 768 kBit/sQuality : HighAdd ID3 tag : NoCommand line compressor : C:\Program Files (x86)\Exact Audio Copy\FLAC\FLAC.EXEAdditional command line options : -6 -V -T "ARTIST=%artist%" -T "TITLE=%title%" -T "ALBUM=%albumtitle%" -T "DATE=%year%"-T "TRACKNUMBER=%tracknr%" -T "GENRE=%genre%" -T "COMMENT=%comment%" -T "BAND=%albuminterpret%" -T "COMPOSER=%composer%" %haslyrics%--ta

TOC of the extracted CD

Track | Start | Length | Start sector | End sector --------------------------------------------------------- 1 | 0:00.00 | 4:00.35 | 0 | 18034 2 | 4:00.35 | 3:23.58 | 18035 | 33317 3 | 7:24.18 | 3:38.07 | 33318 | 49674 4 | 11:02.25 | 4:17.39 | 49675 | 68988 5 | 15:19.64 | 2:28.70 | 68989 | 80158 6 | 17:48.59 | 3:40.22 | 80159 | 96680 7 | 21:29.06 | 3:13.57 | 96681 | 111212 8 | 24:42.63 | 2:37.43 | 111213 | 123030 9 | 27:20.31 | 2:25.28 | 123031 | 133933 10 | 29:45.59 | 6:44.33 | 133934 | 164266 11 | 36:30.17 | 6:48.11 | 164267 | 194877 12 | 43:18.28 | 5:30.05 | 194878 | 219632 13 | 51:20.33 | 1:18.61 | 231033 | 236943

Track 1

Filename C:\Music\01 - Phil Collins - Look Through My Eyes.wav

Pre-gap length 0:00:02.00

Peak level 77.8 % Extraction speed 2.5 X Track quality 100.0 % Test CRC A87168FB Copy CRC A87168FB Accurately ripped (confidence 13) [1A319E5B] (AR v1) Copy OK

Track 2

Filename C:\Music\02 - Tina Turner - Great Spirits.wav

Peak level 87.5 % Extraction speed 2.7 X Track quality 100.0 % Test CRC D2F0F480 Copy CRC D2F0F480 Accurately ripped (confidence 13) [1D03FAFC] (AR v1) Copy OK

Track 3

Filename C:\Music\03 - Phil Collins - Welcome.wav

Peak level 69.5 % Extraction speed 2.4 X Track quality 99.9 % Test CRC D9A76A42 Copy CRC D9A76A42 Accurately ripped (confidence 13) [66F9339A] (AR v1) Copy OK

Track 4

Filename C:\Music\04 - Phil Collins - No Way Out Single Version.wav

Peak level 74.4 % Extraction speed 3.3 X Track quality 100.0 % Test CRC 2E5BAC8B Copy CRC 2E5BAC8B Accurately ripped (confidence 13) [3922F1CA] (AR v1) Copy OK

Track 5

Filename C:\Music\05 - Bulgarian Women's Choir - Transformation.wav

Peak level 96.1 % Extraction speed 3.1 X Track quality 100.0 % Test CRC FAEF74FB Copy CRC FAEF74FB Accurately ripped (confidence 13) [CE916256] (AR v1) Copy OK

Track 6

Filename C:\Music\06 - Phil Collins - On My Way.wav

Peak level 94.9 % Extraction speed 3.5 X Track quality 100.0 % Test CRC D90CAD21 Copy CRC D90CAD21 Accurately ripped (confidence 13) [01F88DE1] (AR v1) Copy OK

Track 7

Filename C:\Music\07 - Blind Boys Of Alabama - Welcome.wav

Peak level 73.7 % Extraction speed 3.6 X Track quality 100.0 % Test CRC 795B6436 Copy CRC 795B6436 Accurately ripped (confidence 13) [B446785A] (AR v1) Copy OK

Track 8

Filename C:\Music\08 - Phil Collins - No Way Out.wav

Peak level 82.7 % Extraction speed 3.6 X Track quality 100.0 % Test CRC 03AED698 Copy CRC 03AED698 Accurately ripped (confidence 13) [287DB60D] (AR v1) Copy OK

Track 9

Filename C:\Music\09 - Phil Collins - Transformation.wav

Peak level 75.1 % Extraction speed 3.6 X Track quality 100.0 % Test CRC 95096BCB Copy CRC 95096BCB Accurately ripped (confidence 13) [3718CE94] (AR v1) Copy OK

Track 10

Filename C:\Music\10 - Mark Mancina - Three Brothers.wav

Peak level 96.1 % Extraction speed 4.4 X Track quality 100.0 % Test CRC 819AD8F8 Copy CRC 819AD8F8 Accurately ripped (confidence 13) [1FC5F54C] (AR v1) Copy OK

Track 11

Filename C:\Music\11 - Mark Mancina - Awakes As A Bear.wav

Peak level 92.8 % Extraction speed 4.7 X Track quality 100.0 % Test CRC D88C368B Copy CRC D88C368B Accurately ripped (confidence 13) [384B4004] (AR v1) Copy OK

Track 12

Filename C:\Music\12 - Mark Mancina - Wilderness Of Danger And Beauty.wav

Peak level 96.1 % Extraction speed 4.9 X Track quality 100.0 % Test CRC ADC09D6A Copy CRC ADC09D6A Accurately ripped (confidence 13) [50126659] (AR v1) Copy OK

All tracks accurately ripped

No errors occurred

End of status report

==== Log checksum C39E6B2F57FAF14E532AE1539ED38BF03E702F2A2060D5A0691515A54A736E82 ====
REM GENRE SoundtrackREM DATE 2003REM DISCID A10C570DREM COMMENT "ExactAudioCopy v1.0b2"PERFORMER "Various"TITLE "Brother Bear"FILE "01 - Phil Collins - Look Through My Eyes.wav" WAVE TRACK 01 AUDIO TITLE "Look Through My Eyes" PERFORMER "Phil Collins" INDEX 01 00:00:00FILE "02 - Tina Turner - Great Spirits.wav" WAVE TRACK 02 AUDIO TITLE "Great Spirits" PERFORMER "Tina Turner" INDEX 01 00:00:00FILE "03 - Phil Collins - Welcome.wav" WAVE TRACK 03 AUDIO TITLE "Welcome" PERFORMER "Phil Collins" INDEX 01 00:00:00FILE "04 - Phil Collins - No Way Out Single Version.wav" WAVE TRACK 04 AUDIO TITLE "No Way Out Single Version" PERFORMER "Phil Collins" INDEX 01 00:00:00FILE "05 - Bulgarian Women's Choir - Transformation.wav" WAVE TRACK 05 AUDIO TITLE "Transformation" PERFORMER "Bulgarian Women's Choir" INDEX 01 00:00:00FILE "06 - Phil Collins - On My Way.wav" WAVE TRACK 06 AUDIO TITLE "On My Way" PERFORMER "Phil Collins" INDEX 01 00:00:00FILE "07 - Blind Boys Of Alabama - Welcome.wav" WAVE TRACK 07 AUDIO TITLE "Welcome" PERFORMER "Blind Boys Of Alabama" INDEX 01 00:00:00FILE "08 - Phil Collins - No Way Out.wav" WAVE TRACK 08 AUDIO TITLE "No Way Out" PERFORMER "Phil Collins" INDEX 01 00:00:00FILE "09 - Phil Collins - Transformation.wav" WAVE TRACK 09 AUDIO TITLE "Transformation" PERFORMER "Phil Collins" INDEX 01 00:00:00FILE "10 - Mark Mancina - Three Brothers.wav" WAVE TRACK 10 AUDIO TITLE "Three Brothers" PERFORMER "Mark Mancina" INDEX 01 00:00:00FILE "11 - Mark Mancina - Awakes As A Bear.wav" WAVE TRACK 11 AUDIO TITLE "Awakes As A Bear" PERFORMER "Mark Mancina" INDEX 01 00:00:00FILE "12 - Mark Mancina - Wilderness Of Danger And Beauty.wav" WAVE TRACK 12 AUDIO TITLE "Wilderness Of Danger And Beauty" PERFORMER "Mark Mancina" INDEX 01 00:00:00


Трекер:  [ 27-Дек-2016 20:30 ]

  

Скачать .torrent

Размер .torrent файла 16 KB


Размер: 357 MB
Хэш (hash) релиза: e032be62f1101ba490d37f1edde123356fb66195

Торренты, похожие на Братец Медвежонок Brother Bear скачать торрент

Форум Название Автор Размер S L Добавлен
Саундтреки к фильмам и мультфильмам (mp3) ·· (Soundtrack) Phil Collins, Mark Mancina & VA - Brother Bear / Братец Медвежонок - 2003, MP3, 320 kb/s Galfimbul 117648136112 MB 0 0 1495986851

18:54

28-Май-17

Саундтреки к фильмам и мультфильмам (lossless) ·· (Soundtrack) Phil Collins, Mark Mancina & VA - Brother Bear / Братец Медвежонок - 2003, FLAC (image+.cue), lossless Galfimbul 373725064356 MB 0 0 1292270197

22:56

13-Дек-10

Еще никто не оставлял запись к записи скачать торрент Братец Медвежонок Brother Bear . Будь первым!

!Обратная связь