Скачать через торрент музыку По ту сторону Босфора Crossing the bridge: The sound of istanbul бесплатно без регистрации torrent

Если у вас наблюдаются проблемы со скриншотами, переходом по ссылками, скачиванием торрентов - проблемы в блокировщике рекламы AdBlock. #хорошегоДня!


Статистика раздачи
Размер:  457 MB   |    Зарегистрирован:  9 месяцев   |    .torrent скачан:  27 раз   |   
Раздают:  1  
   
Загрузка...
 
Автор Сообщение

Galfimbul

avatar Galfimbul


По ту сторону Босфора / Crossing the bridge: The sound of istanbul

Название альбома: Crossing The Bridge: The Sound Of İstanbul
Жанр: Score
Год выпуска диска: 2005
Год выпуска фильма: 2005
Страна-производитель диска: Germany
Издатель (лейбл): Warner Music Group Germany
Номер по каталогу: 5050467-8740-2-2
Аудиокодек: FLAC (*.flac)
Тип рипа: tracks+.cue
Битрейт аудио: lossless
Продолжительность: 01:00:52
Источник: Usenet.nl
Наличие сканов в содержимом раздачи: нет
Треклист:
01 "Music" - Sertab Erener (5:18)
02 "Tavus Havası" - Baba Zula (5:27)
03 "İstanbul 1:26 A.M." - Orient Expressions (6:36)
04 "İstanbul" - Duman (1:40)
05 "Şahar Dağı" - Replikas (7:08)
06 "Holocaust" - Ceza (3:28)
07 "AB-I Hayat" - Mercan Dede (3:47)
08 "Kürdili Hicazkar Longa" - Selim Sesler (4:58)
09 "Wedding Song" - The Wedding Sound System (2:04)
10 "Penceresi Yola Karşı" - Selim Sesler & Brenna MacCrimmon (2:54)
11 "Hayyam" - Siya Siyabend (2:49)
12 "Böyle Olur Mu" - Nur Ceylan (1:34)
13 "Ehmedo" - Aynur Doğan (5:26)
14 "Hatasız Kul Olmaz" - Orhan Gencebay (5:24)
15 "Haydar Haydar" - Müzeyyen Senar (1:19)
16 "İstanbul Hatırası" - Sezen Aksu (4:38)
17 "Cecom" - Baba Zula (4:35)
18 "Music (Radyo Versyonu)" - Sertab Erener (3:47)
Exact Audio Copy V0.99 prebeta 5 from 4. May 2009

EAC extraction logfile from 22. June 2010, 13:34

Various / Crossing The Bridge - Istanbul Hatirasi

Used drive : _NEC DVD+-RW ND-3450A Adapter: 0 ID: 0

Read mode : SecureUtilize accurate stream : YesDefeat audio cache : YesMake use of C2 pointers : No

Read offset correction : 48Overread into Lead-In and Lead-Out : NoFill up missing offset samples with silence : YesDelete leading and trailing silent blocks : NoNull samples used in CRC calculations : YesUsed interface : Native Win32 interface for Win NT & 2000Gap handling : Appended to previous track

Used output format : User Defined EncoderSelected bitrate : 128 kBit/sQuality : HighAdd ID3 tag : NoCommand line compressor : C:\Program Files\Exact Audio Copy\Flac\flac.exeAdditional command line options : -V -8 -T "artist=%a" -T "title=%t" -T "album=%g" -T "date=%y" -T "tracknumber=%n" -T "genre=%m" %s

TOC of the extracted CD

Track | Start | Length | Start sector | End sector --------------------------------------------------------- 1 | 0:00.00 | 5:14.16 | 0 | 23565 2 | 5:14.16 | 5:23.56 | 23566 | 47846 3 | 10:37.72 | 6:32.07 | 47847 | 77253 4 | 17:10.04 | 1:36.16 | 77254 | 84469 5 | 18:46.20 | 7:04.05 | 84470 | 116274 6 | 25:50.25 | 3:24.39 | 116275 | 131613 7 | 29:14.64 | 3:43.31 | 131614 | 148369 8 | 32:58.20 | 4:54.46 | 148370 | 170465 9 | 37:52.66 | 2:00.70 | 170466 | 179535 10 | 39:53.61 | 2:50.28 | 179536 | 192313 11 | 42:44.14 | 2:45.66 | 192314 | 204754 12 | 45:30.05 | 1:30.54 | 204755 | 211558 13 | 47:00.59 | 5:22.31 | 211559 | 235739 14 | 52:23.15 | 5:20.53 | 235740 | 259792 15 | 57:43.68 | 1:15.50 | 259793 | 265467 16 | 58:59.43 | 4:34.32 | 265468 | 286049 17 | 63:34.00 | 4:31.53 | 286050 | 306427 18 | 68:05.53 | 3:47.67 | 306428 | 323519

Track 1

Filename D:\EAC\Crossing The Bridge - Istanbul Hatirasi (2005)\01 - Music.wav

Pre-gap length 0:00:02.00

Peak level 98.8 % Track quality 100.0 % Test CRC B707D9A6 Copy CRC B707D9A6 Accurately ripped (confidence 6) [2096E80C] Copy OK

Track 2

Filename D:\EAC\Crossing The Bridge - Istanbul Hatirasi (2005)\02 - Tavus Havasi (Live).wav

Peak level 99.0 % Track quality 99.9 % Test CRC C647962A Copy CRC C647962A Accurately ripped (confidence 5) [3482846F] Copy OK

Track 3

Filename D:\EAC\Crossing The Bridge - Istanbul Hatirasi (2005)\03 - Istanbul 1-26 A.M..wav

Peak level 96.2 % Track quality 100.0 % Test CRC 8A155B02 Copy CRC 8A155B02 Accurately ripped (confidence 5) [49DD89B4] Copy OK

Track 4

Filename D:\EAC\Crossing The Bridge - Istanbul Hatirasi (2005)\04 - Istanbul (Live).wav

Peak level 99.5 % Track quality 100.0 % Test CRC 4ED80475 Copy CRC 4ED80475 Accurately ripped (confidence 5) [BE650863] Copy OK

Track 5

Filename D:\EAC\Crossing The Bridge - Istanbul Hatirasi (2005)\05 - Sahar Dagi (Live).wav

Peak level 99.4 % Track quality 99.9 % Test CRC D3A3D7B7 Copy CRC D3A3D7B7 Accurately ripped (confidence 5) [E7AD2863] Copy OK

Track 6

Filename D:\EAC\Crossing The Bridge - Istanbul Hatirasi (2005)\06 - Holocaust.wav

Peak level 98.8 % Track quality 99.9 % Test CRC 251FC518 Copy CRC 251FC518 Accurately ripped (confidence 5) [5A10D41F] Copy OK

Track 7

Filename D:\EAC\Crossing The Bridge - Istanbul Hatirasi (2005)\07 - Ab-i Hayat.wav

Peak level 98.8 % Track quality 100.0 % Test CRC DACA607A Copy CRC DACA607A Accurately ripped (confidence 5) [833CC53C] Copy OK

Track 8

Filename D:\EAC\Crossing The Bridge - Istanbul Hatirasi (2005)\08 - Kьrdili Hicazkar Longa (Live).wav

Peak level 98.8 % Track quality 100.0 % Test CRC 3A728DFA Copy CRC 3A728DFA Accurately ripped (confidence 5) [34F089EC] Copy OK

Track 9

Filename D:\EAC\Crossing The Bridge - Istanbul Hatirasi (2005)\09 - Penceresi Yola Karsi (Live).wav

Peak level 86.1 % Track quality 100.0 % Test CRC B4E7A1AE Copy CRC B4E7A1AE Accurately ripped (confidence 5) [9E0E4F73] Copy OK

Track 10

Filename D:\EAC\Crossing The Bridge - Istanbul Hatirasi (2005)\10 - Wedding Song (Live).wav

Peak level 76.9 % Track quality 100.0 % Test CRC DF07B24D Copy CRC DF07B24D Accurately ripped (confidence 5) [CAA68E57] Copy OK

Track 11

Filename D:\EAC\Crossing The Bridge - Istanbul Hatirasi (2005)\11 - Hayyam (Live).wav

Pre-gap length 0:00:00.16

Peak level 98.8 % Track quality 100.0 % Test CRC AA7796A7 Copy CRC AA7796A7 Accurately ripped (confidence 5) [DE9BE089] Copy OK

Track 12

Filename D:\EAC\Crossing The Bridge - Istanbul Hatirasi (2005)\12 - Bцyle Olur Mu (Live).wav

Peak level 89.9 % Track quality 100.0 % Test CRC 903679A4 Copy CRC 903679A4 Accurately ripped (confidence 5) [85050A51] Copy OK

Track 13

Filename D:\EAC\Crossing The Bridge - Istanbul Hatirasi (2005)\13 - Ehmedo (Live).wav

Peak level 98.8 % Track quality 99.9 % Test CRC 6CCBB605 Copy CRC 6CCBB605 Accurately ripped (confidence 5) [C845C40B] Copy OK

Track 14

Filename D:\EAC\Crossing The Bridge - Istanbul Hatirasi (2005)\14 - Hatasiz Kul Olmaz (Live).wav

Peak level 99.6 % Track quality 100.0 % Test CRC 811EEE4D Copy CRC 811EEE4D Accurately ripped (confidence 5) [B75760BA] Copy OK

Track 15

Filename D:\EAC\Crossing The Bridge - Istanbul Hatirasi (2005)\15 - Haydar Haydar (Live).wav

Peak level 98.8 % Track quality 100.0 % Test CRC 1D0FE91E Copy CRC 1D0FE91E Accurately ripped (confidence 5) [80864414] Copy OK

Track 16

Filename D:\EAC\Crossing The Bridge - Istanbul Hatirasi (2005)\16 - Istanbul Hatirasi (Live).wav

Peak level 98.8 % Track quality 100.0 % Test CRC D7E953B3 Copy CRC D7E953B3 Accurately ripped (confidence 5) [9F0C0D8B] Copy OK

Track 17

Filename D:\EAC\Crossing The Bridge - Istanbul Hatirasi (2005)\17 - Cecom (Live).wav

Peak level 98.8 % Track quality 100.0 % Test CRC 5E455F76 Copy CRC 5E455F76 Accurately ripped (confidence 5) [34536597] Copy OK

Track 18

Filename D:\EAC\Crossing The Bridge - Istanbul Hatirasi (2005)\18 - Music (Radio Edit).wav

Pre-gap length 0:00:01.81

Peak level 92.2 % Track quality 100.0 % Test CRC 4FF1A826 Copy CRC 4FF1A826 Accurately ripped (confidence 6) [7781FAEF] Copy OK

All tracks accurately ripped

No errors occurred

End of status report
REM GENRE SoundtrackREM DATE 2005REM DISCID 0510D912REM COMMENT "ExactAudioCopy v0.99pb5"PERFORMER "Various"TITLE "Crossing The Bridge - Istanbul Hatirasi"FILE "01 - Music.wav" WAVE TRACK 01 AUDIO TITLE "Music" PERFORMER "Sertab Erener" INDEX 01 00:00:00FILE "02 - Tavus Havasi (Live).wav" WAVE TRACK 02 AUDIO TITLE "Tavus Havasi (Live)" PERFORMER "Baba Zula" INDEX 01 00:00:00FILE "03 - Istanbul 1-26 A.M..wav" WAVE TRACK 03 AUDIO TITLE "Istanbul 1:26 A.M." PERFORMER "Orient Expressions" INDEX 01 00:00:00FILE "04 - Istanbul (Live).wav" WAVE TRACK 04 AUDIO TITLE "Istanbul (Live)" PERFORMER "Duman" INDEX 01 00:00:00FILE "05 - Sahar Dagi (Live).wav" WAVE TRACK 05 AUDIO TITLE "Sahar Dagi (Live)" PERFORMER "Replikas" INDEX 01 00:00:00FILE "06 - Holocaust.wav" WAVE TRACK 06 AUDIO TITLE "Holocaust" PERFORMER "Ceza" INDEX 01 00:00:00FILE "07 - Ab-i Hayat.wav" WAVE TRACK 07 AUDIO TITLE "Ab-i Hayat" PERFORMER "Mercan Dede" INDEX 01 00:00:00FILE "08 - Kьrdili Hicazkar Longa (Live).wav" WAVE TRACK 08 AUDIO TITLE "Kьrdili Hicazkar Longa (Live)" PERFORMER "Selim Sesler" INDEX 01 00:00:00FILE "09 - Penceresi Yola Karsi (Live).wav" WAVE TRACK 09 AUDIO TITLE "Penceresi Yola Karsi (Live)" PERFORMER "Selim Sesler & Brenna Maccrimmon" INDEX 01 00:00:00FILE "10 - Wedding Song (Live).wav" WAVE TRACK 10 AUDIO TITLE "Wedding Song (Live)" PERFORMER "The Wedding Sound System" INDEX 01 00:00:00 TRACK 11 AUDIO TITLE "Hayyam (Live)" PERFORMER "Siyasiyabend" INDEX 00 02:50:16FILE "11 - Hayyam (Live).wav" WAVE INDEX 01 00:00:00FILE "12 - Bцyle Olur Mu (Live).wav" WAVE TRACK 12 AUDIO TITLE "Bцyle Olur Mu (Live)" PERFORMER "Nur Ceylan" INDEX 01 00:00:00FILE "13 - Ehmedo (Live).wav" WAVE TRACK 13 AUDIO TITLE "Ehmedo (Live)" PERFORMER "Aynur Dogan" INDEX 01 00:00:00FILE "14 - Hatasiz Kul Olmaz (Live).wav" WAVE TRACK 14 AUDIO TITLE "Hatasiz Kul Olmaz (Live)" PERFORMER "Orhan Gencebay" INDEX 01 00:00:00FILE "15 - Haydar Haydar (Live).wav" WAVE TRACK 15 AUDIO TITLE "Haydar Haydar (Live)" PERFORMER "Mьzeyyen Senar" INDEX 01 00:00:00FILE "6 - Istanbul Hatirasi (Live).wav" WAVE TRACK 16 AUDIO TITLE "Istanbul Hatirasi (Live)" PERFORMER "Sezen Aksu" INDEX 01 00:00:00FILE "17 - Cecom (Live).wav" WAVE TRACK 17 AUDIO TITLE "Cecom (Live)" PERFORMER "Baba Zula" INDEX 01 00:00:00 TRACK 18 AUDIO TITLE "Music (Radio Edit)" PERFORMER "Sertab Erener" INDEX 00 04:29:67FILE "18 - Music (Radio Edit).wav" WAVE INDEX 01 00:00:00
AUDIOCHECKER v2.0 beta (build 457) - by Dester - opdester@freemail.hu~~~~~~~~~~~~~~~~~~~~~~~~~~~~~~~~~~

Started at: понедельник, 19. 12. 2016. - 12:48.1218 files found

01 -===- C:\Users\олм\Downloads\Crossing The Bridge - Istanbul Hatirasi (2005)\01 - Music.flac Extracted successfully Conclusion: this track is CDDA with probability 100% Tempfile successfully deleted.

02 -===- C:\Users\олм\Downloads\Crossing The Bridge - Istanbul Hatirasi (2005)\02 - Tavus Havasi (Live).flac Extracted successfully Conclusion: this track is CDDA with probability 100% Tempfile successfully deleted.

03 -===- C:\Users\олм\Downloads\Crossing The Bridge - Istanbul Hatirasi (2005)\03 - Istanbul 1-26 A.M..flac Extracted successfully Conclusion: this track is MPEG with probability 95% Tempfile successfully deleted.

04 -===- C:\Users\олм\Downloads\Crossing The Bridge - Istanbul Hatirasi (2005)\04 - Istanbul (Live).flac Extracted successfully Conclusion: this track is CDDA with probability 100% Tempfile successfully deleted.

05 -===- C:\Users\олм\Downloads\Crossing The Bridge - Istanbul Hatirasi (2005)\05 - Sahar Dagi (Live).flac Extracted successfully Conclusion: this track is CDDA with probability 100% Tempfile successfully deleted.

06 -===- C:\Users\олм\Downloads\Crossing The Bridge - Istanbul Hatirasi (2005)\06 - Holocaust.flac Extracted successfully Conclusion: this track is CDDA with probability 100% Tempfile successfully deleted.

07 -===- C:\Users\олм\Downloads\Crossing The Bridge - Istanbul Hatirasi (2005)\07 - Ab-i Hayat.flac Extracted successfully Conclusion: this track is MPEG with probability 95% Tempfile successfully deleted.

08 -===- C:\Users\олм\Downloads\Crossing The Bridge - Istanbul Hatirasi (2005)\08 - Kurdili Hicazkar Longa (Live).flac Extracted successfully Conclusion: this track is CDDA with probability 100% Tempfile successfully deleted.

09 -===- C:\Users\олм\Downloads\Crossing The Bridge - Istanbul Hatirasi (2005)\09 - Penceresi Yola Karsi (Live).flac Extracted successfully Conclusion: this track is CDDA with probability 100% Tempfile successfully deleted.

10 -===- C:\Users\олм\Downloads\Crossing The Bridge - Istanbul Hatirasi (2005)\10 - Wedding Song (Live).flac Extracted successfully Conclusion: this track is CDDA with probability 100% Tempfile successfully deleted.

11 -===- C:\Users\олм\Downloads\Crossing The Bridge - Istanbul Hatirasi (2005)\11 - Hayyam (Live).flac Extracted successfully Conclusion: this track is CDDA with probability 100% Tempfile successfully deleted.

12 -===- C:\Users\олм\Downloads\Crossing The Bridge - Istanbul Hatirasi (2005)\12 - Boyle Olur Mu (Live).flac Extracted successfully Conclusion: this track is CDDA with probability 100% Tempfile successfully deleted.

13 -===- C:\Users\олм\Downloads\Crossing The Bridge - Istanbul Hatirasi (2005)\13 - Ehmedo (Live).flac Extracted successfully Conclusion: this track is CDDA with probability 100% Tempfile successfully deleted.

14 -===- C:\Users\олм\Downloads\Crossing The Bridge - Istanbul Hatirasi (2005)\14 - Hatasiz Kul Olmaz (Live).flac Extracted successfully Conclusion: this track is CDDA with probability 99% Tempfile successfully deleted.

15 -===- C:\Users\олм\Downloads\Crossing The Bridge - Istanbul Hatirasi (2005)\15 - Haydar Haydar (Live).flac Extracted successfully Conclusion: this track is CDDA with probability 100% Tempfile successfully deleted.

16 -===- C:\Users\олм\Downloads\Crossing The Bridge - Istanbul Hatirasi (2005)\16 - Istanbul Hatirasi (Live).flac Extracted successfully Conclusion: this track is CDDA with probability 100% Tempfile successfully deleted.

17 -===- C:\Users\олм\Downloads\Crossing The Bridge - Istanbul Hatirasi (2005)\17 - Cecom (Live).flac Extracted successfully Conclusion: this track is CDDA with probability 100% Tempfile successfully deleted.

18 -===- C:\Users\олм\Downloads\Crossing The Bridge - Istanbul Hatirasi (2005)\18 - Music (Radio Edit).flac Extracted successfully Conclusion: this track is CDDA with probability 99% Tempfile successfully deleted.

Finished at: понедельник, 19. 12. 2016. - 13:01.20 (operation time: 0:13.08)


Трекер:  [ 19-Дек-2016 03:30 ]

  

Скачать .torrent

Размер .torrent файла 19 KB


Размер: 457 MB
Хэш (hash) релиза: 593aa58145fe836be38c9f8cc6143d73b957c47f

Еще никто не оставлял запись к записи скачать торрент По ту сторону Босфора Crossing the bridge: The sound of istanbul . Будь первым!

!Обратная связь