Скачать через торрент Комета Люцифера Comet Lucifer бесплатно Аниме Все серии на русском torrent

Если у вас наблюдаются проблемы со скриншотами, переходом по ссылками, скачиванием торрентов - проблемы в блокировщике рекламы AdBlock. #хорошегоДня!


Статистика раздачи
Размер:  8.28 GB   |    Зарегистрирован:  9 месяцев   |    .torrent скачан:  15 раз   |   
Раздают:  1  
   
Загрузка...
 
Автор Сообщение

Galfimbul

avatar Galfimbul



<span class="post-font-serif1">Страна: Япония
Год выпуска: 2015
Жанр: приключения, фантастика, меха
Продолжительность: ТВ (12 эп.), по 25 мин.
Режиссер: Кикути Ясухито
Студия</span>:
<span class="post-font-serif1">Перевод:</span>
<ol class="post-ul">
<span class="post-font-serif1">русские субтитры от Antravoco (полные) | .ass, внешние
переводчик, перевод песен, оформление: chainsaws; редакторы: Advokat, Kekcelt</span>
</ol>
<span class="post-font-serif1">Озвучка:</span>
<ol class="post-ul">
<span class="post-font-serif1">трёхголосая от Octav & Nutbar & Акварелька (Anifilm) | .mka, внешние</span>
</ol>
<span class="post-font-serif1">Описание: История разворачивается на планете Гифт, в землях которой добываются драгоценные синие кристаллы, называемые гифдиумами. Молодой человек по имени Амаги Сого живет в процветающем шахтерском городке Сад Индиго. Хобби Сого является сбор редких кристаллов. Однажды он вместе с одноклассниками Каон, Романом и Отто оказывается замешан в беспорядках. Потерявшись, он находит озеро глубоко под руинами города. Там он встречает загадочную девушку с голубыми волосами и красными глазами. О приключениях, что последуют после этой встречи, и расскажет это фантастическая история.</span>
<span class="post-font-serif1">© Tedeika</span>
<span class="post-font-serif1">Информационные ссылки</span>: <span class="post-font-serif1">AniDB || World Art || MAL</span>
<span class="post-font-serif1">Качество: BDRip
Энкод: neko-raws
Тип видео: без хардсаба, без линковки
Формат видео: MKV
Видео: x264, 10 bits, 1920x1080 (16:9), 23.976 fps, ~7300 Kbps
Аудио JAP: FLAC, 48000Hz, 2ch, ~700 Kbps
Аудио RUS (ext): AAC, 48000Hz, 2ch, ~192 Kbps
</span>
<span class="post-font-mono1">Общее
Уникальный идентификатор: 187557540708574461024027583864943583354 (0x8D1A44B582A20C059389525C3CFEA07A)
Полное имя: F:\Раздачи\Comet Lucifer [BDRip] [1080p]\[neko-raws] Comet Lucifer 01 [BD][1080p][FLAC].mkv
Формат: Matroska
Версия формата: Version 4 / Version 2
Размер файла: 1,33 Гбайт
Продолжительность: 23 м.
Режим общего битрейта: Переменный
Общий поток: 8021 Кбит/сек
Дата кодирования: UTC 2016-12-12 06:40:51
Программа кодирования: mkvmerge v9.6.0 ('Slave To Your Mind') 64bit
Библиотека кодирования: libebml v1.3.4 + libmatroska v1.4.5

Видео
Идентификатор: 1
Формат: AVC
Формат/Информация: Advanced Video Codec
Профиль формата: High 10@L5
Параметр CABAC формата: Да
Параметр ReFrames формата: 4 кадра
Идентификатор кодека: V_MPEG4/ISO/AVC
Продолжительность: 23 м.
Битрейт: 7321 Кбит/сек
Ширина: 1920 пикселей
Высота: 1080 пикселей
Соотношение сторон: 16:9
Режим частоты кадров: Постоянный
Частота кадров: 23,976 (24000/1001) кадра/сек
Цветовое пространство: YUV
Субдискретизация насыщенности: 4:2:0
Битовая глубина: 10 бит
Тип развёртки: Прогрессивная
Бит/(Пиксели*Кадры): 0.147
Размер потока: 1,21 Гбайт (91%)
Заголовок: encode by neko-shi
Библиотека кодирования: x264 core 148 r2597M e86f3a1 (DJATOM's build)
Настройки программы: cabac=1 / ref=4 / deblock=1:-1:-1 / analyse=0x3:0x113 / me=umh / subme=10 / psy=1 / fade_compensate=0.00 / psy_rd=1.00:0.00 / mixed_ref=1 / me_range=24 / chroma_me=1 / trellis=2 / 8x8dct=1 / cqm=0 / deadzone=21,11 / fast_pskip=1 / chroma_qp_offset=-2 / threads=12 / lookahead_threads=2 / sliced_threads=0 / nr=0 / decimate=1 / interlaced=0 / bluray_compat=0 / constrained_intra=0 / bframes=9 / b_pyramid=2 / b_adapt=2 / b_bias=0 / direct=1 / weightb=1 / open_gop=0 / weightp=2 / keyint=250 / keyint_min=23 / scenecut=40 / intra_refresh=0 / rc=crf / mbtree=0 / crf=16.0000 / qcomp=0.70 / qpmin=0 / qpmax=81 / qpstep=4 / ip_ratio=1.40 / pb_ratio=1.30 / aq=1:1.00
Default: Да
Forced: Нет

Аудио
Идентификатор: 2
Формат: FLAC
Формат/Информация: Free Lossless Audio Codec
Идентификатор кодека: A_FLAC
Продолжительность: 23 м.
Вид битрейта: Переменный
Битрейт: 698 Кбит/сек
Каналы: 2 канала
Расположение каналов: Front: L R
Частота: 48,0 КГц
Частота кадров: 11,719 кадров/сек (4096 spf)
Битовая глубина: 16 бит
Размер потока: 118 Мбайт (9%)
Заголовок: FLAC
Библиотека кодирования: libFLAC 1.2.1 (UTC 2007-09-17)
Язык: Japanese
Default: Да
Forced: Нет</span>
<span class="post-font-mono1">File: F:\Раздачи\Comet Lucifer [BDRip] [1080p]\[neko-raws] Comet Lucifer 01 [BD][1080p][FLAC].mkv
Duration: 00:23:40 (1420.17)
Track #1: video (encode by neko-shi)
lang: und (1)
codc: V_MPEG4/ISO/AVC -> H264/AVC (22)
reso: 1920x1080 -> 16:9
fram: 23.976 fps
rate: 7321 kbps (7321.49)
dura: 00:23:40 (1420.13)
size: 1.21 GB (1299680457)
Track #2: audio (FLAC)
lang: jpn -> Japanese (2)
codc: A_FLAC -> Other (15)
chan: 2 -> Stereo
samp: 48000 Hz
rate: 699 kbps (698.53)
dura: 00:23:40 (1420.12)
size: 118.26 MB (124000007)
Sizes: (check sanity)
disk: 1.33 GB (1423981880)
trac: 1.33 GB (1423680464) [based on track size]
bitr: 1.33 GB (1423681257) [based on bitrate]
tdif: 294.35 KB (301416) 0.02%
bdif: 293.58 KB (300622) 0.02%</span>
<span class="post-font-serif1">01. The Boy and the Vast Land
02. Under One Roof
03. Garden Indigo
04. Storm
05. Souls Come Together
06. Flower Boy
</span>
<a href="viewtopic.php?t=5167693" class="postLink">...5167693</a>
<a href="viewtopic.php?t=5097384" class="postLink">...5097384</a>
<a href="viewtopic.php?t=5091150" class="postLink">...5091150</a>
- BDRip 1080p


Трекер:  [ 14-Дек-2016 16:30 ]

  

Скачать .torrent

Размер .torrent файла 44 KB


Размер: 8.28 GB
Хэш (hash) релиза: a93cd15872c74812e7182ddb14a04210f47c4af4
Подписка на обновления:

Торренты, похожие на Комета Люцифера Comet Lucifer скачать торрент

Форум Название Автор Размер S L Добавлен
Аниме | Rips ·· Комета Люцифера / Comet Lucifer [TV] [12 из 12] [Без хардсаба] [RUS(int), JAP+SUB] [2015 г., приключения, фантастика, меха, HDTVRip] [HWP] Galfimbul 46603828264.34 GB 0 0 1461496600

14:16

24-Апр-16

Аниме | HD Rips ·· Комета Люцифера / Comet Lucifer (Кикути Ясухито) [TV] [01-12 из 12] [Без хардсаба] [RUS(int)+JAP+SUB] [2015, Приключения, фантастика, меха, HDTVRip] [720p] Galfimbul 63681324965.93 GB 0 0 1454950768

19:59

8-Фев-16

Аниме | Rips ·· Комета Люцифера / Comet Lucifer [TV] [01-04 из 12] [Без хардсаба] [RUS(int), JAP+SUB] [2015 г., приключения, фантастика, меха, HDTVRip] [HWP] Galfimbul 16234667851.51 GB 0 0 1449253851

21:30

4-Дек-15

Аниме | HD Rips ·· Комета Люцифера / Comet Lucifer (Кикути Ясухито) [TV] [Без хардсаба] [2 из 12] [JAP+SUB] [2015 г., приключения, фэнтези HDTVRip] [720p] Galfimbul 1018178023971 MB 0 0 1444859048

00:44

15-Окт-15

Аниме | Rips ·· Комета Люцифер / Comet Lucifer [TV] [01-02 из 12] [Без хардсаба] [RUS(ext), JAP, SUB] [2015 г., Приключения, Фэнтези, HDTVRip] [720p] Galfimbul 12491582121.16 GB 0 0 1444858702

00:38

15-Окт-15

Аниме | Rips ·· Комета Люцифер / Comet Lucifer (Кикути Ясухито) [TV] [01 из 12] [без хардсаба] [RUS(int), JAP+SUB] [2015 г., приключения, фентези, WEBRip] [720p] Galfimbul 372215689355 MB 0 0 1444858661

00:37

15-Окт-15

Еще никто не оставлял запись к записи скачать торрент Комета Люцифера Comet Lucifer . Будь первым!

!Обратная связь