Скачать через торрент Обезглавливающий цикл: Синий Савант и Повелитель Бессмыслиц Kubikiri Cycle: Aoiro Savant to Zaregoto Tsukai бесплатно Аниме Все серии на русском torrent

Если у вас наблюдаются проблемы со скриншотами, переходом по ссылками, скачиванием торрентов - проблемы в блокировщике рекламы AdBlock. #хорошегоДня!


Статистика раздачи
Размер:  752 MB   |    Зарегистрирован:  9 месяцев   |    .torrent скачан:  33 раза   |   
Раздают:  1  
   
Загрузка...
 
Автор Сообщение

Galfimbul

avatar Galfimbul


Обезглавливающий цикл: Синий Савант и Повелитель Бессмыслиц / Kubikiri Cycle: Aoiro Savant to Zaregoto Tsukai / Zaregoto
Страна: Япония
Год выпуска: 2016
Жанр: приключения, драма, экшен, мистика, сверхъестественное
Тип: OVA
Продолжительность: 8 эп. по ~28 мин.
Режиссер: Симбо Акиюки
Студия: SHAFT
Перевод: Helge, Nagaki, SeshaRim
Озвучание: двухголосое (муж./жен.) от Soer, MezIdA [DeadLine Studio]
Работа со звуком: Soer [DeadLine Studio]
<span class="post-font-sans1">
Описание:
Сюжет, о котором нам поведает данное аниме, будут рассказываться от первого лица. Главный герой, вопреки своей воле и желаниям, постоянно оказывается втянут в какие-то истории с убийствами и загадками и вечно вовлечен в гущу событий. Как ни пытается он избежать этого, судьба не на его стороне, так что приходится ему впрягаться в ярмо и стараться отыскать ключи к тайнам. Вот только, сколько бы усилий он ни прилагал, как бы ни старался, в итоге оказывается, что всё, что бы он ни сделал, — всё тщетно.
Качество: BDRip | Формат: .mkv | Рип: [Commie]
Видео: x264(10 bit.), 1280x720, 3 100 kbps, 23,976 fps
Звук (Rus(int)): aac, 180 kbps, 48.0 KHz, 2 ch
Звук (Japanese): aac, 167 kbps, 48.0 KHz, 2 ch
Субтитры (Russian): ass, встроенные | только надписи (включены по умолчанию)
Субтитры (Russian): ass, встроенные | полный перевод
Хардсаб: отсутствует</span>
01. День 3 (1) Сбор савантов

General
Unique ID : 236297346941089634975371836814449711695 (0xB1C536B025F9D3168DD8A852F6CC1A4F)
Complete name : D:\[DLS] Zaregoto [OVA] [Soer & MezIdA]\[DeadLine] Zaregoto - 01 [OVA] [Soer & MezIdA] [720p BDRip].mkv
Format : Matroska
Format version : Version 4 / Version 2
File size : 752 MiB
Duration : 27mn 22s
Overall bit rate : 3 841 Kbps
Encoded date : UTC 2016-12-09 18:14:47
Writing application : mkvmerge v7.6.0 ('Garden of Dreams') 64bit built on Feb 8 2015 13:04:34
Writing library : libebml v1.3.1 + libmatroska v1.4.2
Attachments : AXCKSV.TTF / CountdownC.otf / LazurskiC.otf / IwaOMinPro-Bd-Fate_0.ttf / Montara-Gothic_0.otf / Montara-Italic_0.otf / Phosi__.ttf / Rom_Ftl_Srif_Std_Juan_Casco.TTF / City Life.ttf / conthrax-sb.ttf / cs_regular.ttf

Video
ID : 1
Format : AVC
Format/Info : Advanced Video Codec
Format profile : High 4:4:4 Predictive@L5
Format settings, CABAC : Yes
Format settings, ReFrames : 16 frames
Codec ID : V_MPEG4/ISO/AVC
Duration : 27mn 22s
Bit rate : 3 484 Kbps
Width : 1 280 pixels
Height : 720 pixels
Display aspect ratio : 16:9
Frame rate mode : Constant
Frame rate : 23.976 (24000/1001) fps
Color space : YUV
Chroma subsampling : 4:4:4
Bit depth : 10 bits
Scan type : Progressive
Bits/(Pixel*Frame) : 0.158
Stream size : 682 MiB (91%)
Writing library : x264 core 148 r2721+55 e19946b t_mod_Custom [10-bit@all X86_64]
Encoding settings : cabac=1 / ref=16 / deblock=1:0:0 / analyse=0x3:0x133 / me=umh / subme=10 / psy=1 / fade_compensate=0.80 / psy_rd=0.80:0.20 / mixed_ref=1 / me_range=24 / chroma_me=1 / trellis=2 / 8x8dct=1 / cqm=0 / deadzone=21,11 / fast_pskip=1 / chroma_qp_offset=3 / threads=12 / lookahead_threads=3 / sliced_threads=0 / nr=0 / decimate=1 / interlaced=0 / bluray_compat=0 / constrained_intra=0 / fgo=0 / bframes=16 / b_pyramid=2 / b_adapt=2 / b_bias=0 / direct=3 / weightb=1 / open_gop=0 / weightp=2 / keyint=250 / keyint_min=23 / scenecut=40 / intra_refresh=0 / rc_lookahead=60 / rc=crf / mbtree=1 / crf=14.0000 / qcomp=0.75 / qpmin=0:0:0 / qpmax=81:81:81 / qpstep=4 / ip_ratio=1.40 / aq=3:0.80 / aq-sensitivity=10.00 / aq-factor=1.00:1.00:1.00 / aq2=0 / aq3=0
Language : English
Default : Yes
Forced : No

Audio #1
ID : 2
Format : AAC
Format/Info : Advanced Audio Codec
Format profile : LC
Codec ID : A_AAC
Duration : 27mn 22s
Bit rate : 180 Kbps
Channel(s) : 2 channels
Channel positions : Front: L R
Sampling rate : 48.0 KHz
Frame rate : 46.875 fps (1024 spf)
Compression mode : Lossy
Delay relative to video : 20ms
Stream size : 35.3 MiB (5%)
Title : [Soer & MezIdA] [Deadline Studio]
Language : Russian
Default : Yes
Forced : Yes

Audio #2
ID : 3
Format : AAC
Format/Info : Advanced Audio Codec
Format profile : LC
Codec ID : A_AAC
Duration : 27mn 22s
Bit rate : 167 Kbps
Channel(s) : 2 channels
Channel positions : Front: L R
Sampling rate : 48.0 KHz
Frame rate : 46.875 fps (1024 spf)
Compression mode : Lossy
Stream size : 32.7 MiB (4%)
Title : Original
Language : Japanese
Default : No
Forced : No

Text #1
ID : 4
Format : ASS
Codec ID : S_TEXT/ASS
Codec ID/Info : Advanced Sub Station Alpha
Duration : 22mn 5s
Bit rate : 65 bps
Count of elements : 86
Compression mode : Lossless
Stream size : 10.6 KiB (0%)
Title : Надписи
Language : Russian
Default : Yes
Forced : Yes

Text #2
ID : 5
Format : ASS
Codec ID : S_TEXT/ASS
Codec ID/Info : Advanced Sub Station Alpha
Duration : 25mn 56s
Bit rate : 216 bps
Count of elements : 392
Compression mode : Lossless
Stream size : 41.2 KiB (0%)
Title : Полные субтитры
Language : Russian
Default : No
Forced : No

Menu
00:00:00.033 : en:Intro
00:02:56.650 : en:Episode
00:25:36.720 : en:ED
00:27:07.940 : en:Preview
<a href="viewtopic.php?t=5312697" class="postLink">...5312697</a> - Наличие озвучки
<a href="viewtopic.php?t=5303988" class="postLink">...5303988</a> - Наличие озвучки


Трекер:  [ 13-Дек-2016 01:00 ]

  

Скачать .torrent

Размер .torrent файла 15 KB


Размер: 752 MB
Хэш (hash) релиза: 4aee90c7aaa918b47b9a2830f012e21c7d29dcb6
Подписка на обновления:

Торренты, похожие на Обезглавливающий цикл: Синий Савант и Повелитель Бессмыслиц Kubikiri Cycle: Aoiro Savant to Zaregoto Tsukai скачать торрент

Форум Название Автор Размер S L Добавлен
Аниме | HD Rips ·· Обезглавливающий цикл: Синий Савант и Повелитель Бессмыслиц / Kubikiri Cycle: Aoiro Savant to Zaregoto Tsukai [OVA] [6 из 8] [Без хардсаба] [JAP, SUB] [2016, Приключения, Драма, Экшен, Сверхъестественное, BDRip] [720p] Galfimbul 28540396642.66 GB 0 0 1496966084

02:54

9-Июн-17

Аниме | HD Rips ·· Обезглавливающий цикл: Синий Савант и Повелитель Бессмыслиц / Kubikiri Cycle: Aoiro Savant to Zaregoto Tsukai (Симбо Акиюки) [OVA] [6 из 8] [Без хардсаба] [JAP+SUB] [2016, приключения, драма, экшен, BDRip] [1080p] Galfimbul 1753738880816.33 GB 0 0 1496966020

02:53

9-Июн-17

Аниме | HD Rips ·· Обезглавливающий цикл: Синий Савант и Повелитель Бессмыслиц / Kubikiri Cycle: Aoiro Savant to Zaregoto Tsukai (Симбо Акиюки) [OVA] [1-4 из 8] [без хардсаба] [JAP+SUB] [2016, приключения, BDRemux] [1080p] Galfimbul 3382360585631.5 GB 0 0 1490050672

01:57

21-Мар-17

Аниме | HD Rips ·· Обезглавливающий цикл: Синий Савант и Повелитель Бессмыслиц / Kubikiri Cycle: Aoiro Savant to Zaregoto Tsukai (Симбо Акиюки) [OVA] [2 из 8] [Без хардсаба] [JAP+SUB] [2016, приключения, драма, экшен, BDRip] [1080p] Galfimbul 55706203915.19 GB 0 0 1480842259

12:04

4-Дек-16

Аниме | HD Rips ·· Обезглавливающий цикл: Синий Савант и Повелитель Бессмыслиц / Kubikiri Cycle: Aoiro Savant to Zaregoto Tsukai [OVA] [2 из 8] [Без хардсаба] [JAP, SUB] [2016, Приключения, Драма, Экшен, Мистика, Сверхъестественное, BDRip] [720p] Galfimbul 990142256944 MB 0 0 1480829076

08:24

4-Дек-16

Аниме | HD Rips ·· Обезглавливающий цикл: Синий Савант и Повелитель Бессмыслиц / Kubikiri Cycle: Aoiro Savant to Zaregoto Tsukai [OVA] [1 из 8] [Без хардсаба] [JAP+SUB] [2015, приключения, драма, экшен, мистика, сверхъестественное BDRip] [1080p] Galfimbul 27950749382.6 GB 0 0 1479407678

21:34

17-Ноя-16

Аниме | HD Rips ·· Обезглавливающий цикл: Синий Савант и Повелитель Бессмыслиц / Kubikiri Cycle: Aoiro Savant to Zaregoto Tsukai [OVA] [01 из 08] [Без хардсаба] [JAP, SUB] [2016, Приключения, Драма, Экшен, Мистика, Сверхъестественное, BDRip] [1080p] Galfimbul 639793547610 MB 0 0 1477785830

03:03

30-Окт-16

Еще никто не оставлял запись к записи скачать торрент Обезглавливающий цикл: Синий Савант и Повелитель Бессмыслиц Kubikiri Cycle: Aoiro Savant to Zaregoto Tsukai . Будь первым!

!Обратная связь