Скачать через торрент Кизнайвер Ранаивер бесплатно Аниме Все серии на русском torrent

Если у вас наблюдаются проблемы со скриншотами, переходом по ссылками, скачиванием торрентов - проблемы в блокировщике рекламы AdBlock. #хорошегоДня!


Статистика раздачи
Размер:  18.52 GB   |    Зарегистрирован:  11 месяцев   |    .torrent скачан:  48 раз   |   
Раздают:  1  
   
Загрузка...
 
Автор Сообщение

Galfimbul

avatar Galfimbul



<span class="post-font-serif1">Страна: Япония
Год выпуска: 2016
Жанр: фантастика, романтика
Продолжительность: ТВ (12 эп.), по 25 мин.
Режиссер: Кобаяси Хироси
Студия</span>:
<span class="post-font-serif1">Перевод:</span>
<ol class="post-ul">
<span class="post-font-serif1">русские субтитры от Timecraft & Ambiente & RJ-45 (полные) | .ass, внешние
редактор: AleX_MytH; переводчик, оформление: Матадор; cверка с японским: RJ-45</span>
</ol>
<span class="post-font-serif1">Озвучка:</span>
<ol class="post-ul">
<span class="post-font-serif1">двухголосая (муж./жен.) от Snowly & Лизавета (SHIZA Project) | .mka, внешние</span>
</ol>
<span class="post-font-serif1">Описание: 17-летний Кацухира Агата – парень щуплый и почти лишенный эмоций, постоянное беспокойство шебутной подруги детства Тидори Такасиро он воспринимает как явление природы. Но даже такого флегматика до костей пробрало заявление странной одноклассницы Норико, что отныне он – часть эксперимента и неразрывно связан с ровесниками-школьниками: той же Тидори, плейбоем Цугухито, хулиганом Хадзимэ, заучкой Хонокой и малышкой Нико, которая на людях держит маску безобидной дурочки. Пусть искусственно, но теперь они стали ближе близнецов, и любая физическая боль, причиненная одному, тут же делится на всю компанию.

Кому и зачем это нужно? Неким тайным силам, которые решили, что Творец, создавая нас по образу и подобию Своему, явно недоработал. Люди все время причиняют друг другу боль – так может, добиться вечного мира и счастья удастся, если каждый будет чувствовать боль другого, как свою собственную? Для начала, конечно, надо потренироваться на кош… то есть, японских школьниках, на ком еще-то? Теперь участники, «связанные одной цепью», будут под руководством Норико отрабатывать дружбу и командную работу, для чего, оказывается, и создан целый город Сугомори. А вы бы хотели к ним присоединиться?</span>
<span class="post-font-serif1">© Hollow, World Art</span>
<span class="post-font-serif1">Информационные ссылки</span>: <span class="post-font-serif1">AniDB || World Art || MAL</span>
<span class="post-font-serif1">Качество: BDRip
Энкод: <span class="post-font-serif1">Beatrice-Raws (DJATOM)</span>
Тип видео: без хардсаба, без линковки
Формат видео: MKV
Видео: x264, 10 bits, 1920x1080 (16:9), 23.976 fps, ~8650 Kbps
Аудио JAP: FLAC, 48000Hz, 2ch, ~1500 Kbps
Аудио RUS (ext): AAC, 48000Hz, 2ch, ~192 Kbps</span>
<span class="post-font-mono1">Общее
Уникальный идентификатор: 230034835187485569005838413863255875422 (0xAD0F1905180713E7B96460B7C1B51F5E)
Полное имя: F:\Раздачи\Kiznaiver [BDRip] [1080p]\[Beatrice-Raws] Kiznaiver 01 [BDRip 1920x1080 x264 FLAC].mkv
Формат: Matroska
Версия формата: Version 4 / Version 2
Размер файла: 1,70 Гбайт
Продолжительность: 24 м.
Режим общего битрейта: Переменный
Общий поток: 10,1 Мбит/сек
Дата кодирования: UTC 2016-08-02 21:36:05
Программа кодирования: mkvmerge v8.2.0 ('World of Adventure') 64bit
Библиотека кодирования: libebml v1.3.1 + libmatroska v1.4.2

Видео
Идентификатор: 1
Формат: AVC
Формат/Информация: Advanced Video Codec
Профиль формата: High 10@L5
Параметр CABAC формата: Да
Параметр ReFrames формата: 4 кадра
Идентификатор кодека: V_MPEG4/ISO/AVC
Продолжительность: 24 м.
Битрейт: 8651 Кбит/сек
Ширина: 1920 пикселей
Высота: 1080 пикселей
Соотношение сторон: 16:9
Режим частоты кадров: Постоянный
Частота кадров: 23,976 (24000/1001) кадра/сек
Цветовое пространство: YUV
Субдискретизация насыщенности: 4:2:0
Битовая глубина: 10 бит
Тип развёртки: Прогрессивная
Бит/(Пиксели*Кадры): 0.174
Размер потока: 1,45 Гбайт (85%)
Заголовок: BDRip by DJATOM
Библиотека кодирования: x264 core 148 r2597M e86f3a1 (DJATOM's build)
Настройки программы: cabac=1 / ref=4 / deblock=1:1:-1 / analyse=0x3:0x113 / me=umh / subme=9 / psy=1 / fade_compensate=0.00 / psy_rd=1.00:0.00 / mixed_ref=1 / me_range=32 / chroma_me=1 / trellis=2 / 8x8dct=1 / cqm=0 / deadzone=21,11 / fast_pskip=1 / chroma_qp_offset=-2 / threads=34 / lookahead_threads=5 / sliced_threads=0 / nr=0 / decimate=1 / interlaced=0 / bluray_compat=0 / constrained_intra=0 / bframes=9 / b_pyramid=2 / b_adapt=2 / b_bias=0 / direct=1 / weightb=1 / open_gop=0 / weightp=2 / keyint=250 / keyint_min=23 / scenecut=40 / intra_refresh=0 / rc=crf / mbtree=0 / crf=15.5000 / qcomp=0.72 / qpmin=0 / qpmax=81 / qpstep=4 / ip_ratio=1.40 / pb_ratio=1.30 / aq=1:0.85
Язык: Japanese
Default: Да
Forced: Нет

Аудио
Идентификатор: 2
Формат: FLAC
Формат/Информация: Free Lossless Audio Codec
Идентификатор кодека: A_FLAC
Продолжительность: 24 м.
Вид битрейта: Переменный
Битрейт: 1469 Кбит/сек
Каналы: 2 канала
Расположение каналов: Front: L R
Частота: 48,0 КГц
Частота кадров: 11,719 кадров/сек (4096 spf)
Битовая глубина: 24 бит
Размер потока: 253 Мбайт (15%)
Заголовок: LPCM->FLAC
Библиотека кодирования: libFLAC 1.3.1 (UTC 2014-11-25)
Язык: Japanese
Default: Да
Forced: Нет

Меню
00:00:00.000: en:Avant
00:01:35.011: en:OP
00:03:04.976: en:Part A
00:13:53.040: en:Part B
00:22:15.042: en:ED
00:23:46.007: en:Next</span>
<span class="post-font-mono1">File: F:\Раздачи\Kiznaiver [BDRip] [1080p]\[Beatrice-Raws] Kiznaiver 01 [BDRip 1920x1080 x264 FLAC].mkv
Duration: 00:24:03 (1443.11)
Track #1: video (BDRip by DJATOM)
lang: jpn (2)
codc: V_MPEG4/ISO/AVC -> H264/AVC (22)
reso: 1920x1080 -> 16:9
fram: 23.976 fps
rate: 8652 kbps (8651.69)
dura: 00:24:03 (1443.07)
size: 1.45 GB (1560620910)
Track #2: audio (LPCM->FLAC)
lang: jpn -> Japanese (2)
codc: A_FLAC -> Other (15)
chan: 2 -> Stereo
samp: 48000 Hz
rate: 1469 kbps (1469.00)
dura: 00:24:03 (1443.07)
size: 252.71 MB (264983521)
Sizes: (check sanity)
disk: 1.70 GB (1825922798)
trac: 1.70 GB (1825604431) [based on track size]
bitr: 1.70 GB (1825603613) [based on bitrate]
tdif: 310.91 KB (318367) 0.01%
bdif: 311.70 KB (319184) 0.01%</span>
<span class="post-font-serif1">01. Sometimes, a Bond Can Bloom from the First Day Eye Contact Is Made
02. If You Can Swallow a Bizarre Situation Like This So Easily, Two Buckets of Barium Shouldn`t Be a Problem
03. Depending on How You Look At It, I Think We Could Get Through Anything... Right?
04. Now That We`re All Connected, Let`s All Get to Know Each Other Better, `Kay?
05. Wahoo, It`s a Training Camp! Let`s Step in Deer Poop and Have Pillow Fights! Go, Go!
06. Nothing Good Comes From Being Around All of You
07. A Battle Touching Upon the Identity of the Pain That`s Seven Times the Pain of One-Seventh of a Pain
08. Happy Times Don`t Tend to Last Very Long
09. It`s All Over... I Think
10. You Knew Very Well That Your Romantic Feelings Might Be Unrequited, Right?
11. We Have to Contact Each Other and Confirm Our Feelings. Because We`re Friends!
12. If the Kizna System Spread Throughout the World
</span>
<a href="viewtopic.php?t=5206156" class="postLink">...5206156</a>
- BDRip 1080p

<a href="viewtopic.php?t=5208662" class="postLink">...5208662</a>
- BDRip


Трекер:  [ 13-Дек-2016 01:00 ]

  

Скачать .torrent

Размер .torrent файла 99 KB


Размер: 18.52 GB
Хэш (hash) релиза: 67ba5ed4ffe47e382a61bdd4276fd4992c009c3a
Подписка на обновления:

Еще никто не оставлял запись к записи скачать торрент Кизнайвер Ранаивер . Будь первым!

!Обратная связь