Скачать через торрент Лабиринт в серых тонах Grisaia no Meikyuu бесплатно Аниме Все серии на русском torrent

Если у вас наблюдаются проблемы со скриншотами, переходом по ссылками, скачиванием торрентов - проблемы в блокировщике рекламы AdBlock. #хорошегоДня!


Статистика раздачи
Размер:  644 MB   |    Зарегистрирован:  9 месяцев   |    .torrent скачан:  27 раз   |   
Раздают:  1  
   
Загрузка...
 
Автор Сообщение

Galfimbul

avatar Galfimbul


Лабиринт в серых тонах / Grisaia no Meikyuu

Страна: Япония
Год выпуска: 2015 г.
Жанр: психологический, драма, сейнэн
Тип: TV+Special
Продолжительность: 1 эп., ~48 мин. + 1 спэшл, ~4 мин.
Режиссер: Танака Мотоки
Студия: 8-bit

Описание: В ожидании повышения, Юджи собирает необходимые документы и, написав от руки краткую автобиографию, подаёт их начальству. Но письменного рассказа о происхождении и его ранних годах жизни оказывается недостаточно: начальству необходимо заглянуть в голову Юджи и понять, что он переживал и как справлялся с эмоциями на протяжении всей своей жизни. Кто был рядом с ним, какие отношения связывали его с окружающими, почему Юджи стал именно таким, каким стал?

Выполняя без особой на то охоты желание начальства, Юджи начинает свой рассказ, который с каждой минутой становится всё мрачнее и прекрасно объясняет его тягу к нормальной жизни. Детство, проведённое в тени гениальной старшей сестры и в обществе отстранившихся от Юджи родителей – отца, который презирал своего «заурядного» сына, и слабовольной матери. Отрочество в школе для будущих киллеров, где Юджи, «любимчика» хозяина, презирали почти все. Профессиональная карьера наёмного убийцы, за которым охотится ЦРУ… и, наконец, встреча с одним хорошим человеком, который полностью изменил всю его жизнь.

Качество: BDRip (Chihiro)
Тип релиза: Без хардсаба
Формат видео: MKV
Видео TV: AVC (10 bit), 1280x544, 1383 Kbps, 23.976 fps
Видео SP: AVC (10 bit), 1280x720, 827 Kbps, 23.976 fps
Аудио: AAC, 48.0 kHz, 233 Kbps, 2ch Язык Японский
Аудио 2: AAC, 48.0 kHz, 193 Kbps, 2ch Язык Русский (внешним файлом) ; Озвучка: трёхголосная: Cuba77 & Nika Lenina & Гамлетка Цезаревна (AniDub)
Субтитры: ASS, внешние, полные | надписи «Timecraft» Язык субтитров русский ; Перевод: Nachtwandler | Редакция: AleX_MytH | Оформление: Surokune
от
<a href="viewtopic.php?t=4986215" class="postLink">...4986215</a>
<a href="viewtopic.php?t=4990373" class="postLink">...4990373</a>
-BDRip
<a href="viewtopic.php?t=5051252" class="postLink">...5051252</a>
<a href="viewtopic.php?t=5053528" class="postLink">...5053528</a>
-720p
<a href="viewtopic.php?t=5051255" class="postLink">...5051255</a>
Лучшее качество (сравнение скриншотов)
GeneralUnique ID : 244995523890048337768063309942778506622 (0xB8506BEC04181C13AFA1897A76B02D7E)Complete name : D:\Фильмы\Аниме\Grisaia\Grisaia no Meikyuu [BD] [720p]\[Chihiro] Grisaia no Meikyuu (BDRip, 720p, AAC).mkvFormat : MatroskaFormat version : Version 4 / Version 2File size : 552 MiBDuration : 47 min 40 sOverall bit rate : 1 618 kb/sEncoded date : UTC 2016-12-11 13:51:33Writing application : mkvmerge v9.6.0 ('Slave To Your Mind') 64bitWriting library : libebml v1.3.4 + libmatroska v1.4.5

VideoID : 1Format : AVCFormat/Info : Advanced Video CodecFormat profile : High 10@L4Format settings, CABAC : YesFormat settings, ReFrames : 12 framesCodec ID : V_MPEG4/ISO/AVCDuration : 47 min 40 sBit rate : 1 383 kb/sWidth : 1 280 pixelsHeight : 544 pixelsDisplay aspect ratio : 2.35:1Frame rate mode : ConstantFrame rate : 23.976 (24000/1001) FPSColor space : YUVChroma subsampling : 4:2:0Bit depth : 10 bitsScan type : ProgressiveBits/(Pixel*Frame) : 0.083Stream size : 472 MiB (86%)Writing library : x264 core 148 r2579kMod 73ae2d1Encoding settings : cabac=1 / ref=12 / deblock=1:0:0 / analyse=0x3:0x133 / me=umh / subme=10 / psy=1 / fade_compensate=0.00 / psy_rd=0.70:0.00 / mixed_ref=1 / me_range=24 / chroma_me=1 / trellis=2 / 8x8dct=1 / cqm=0 / deadzone=21,11 / fast_pskip=1 / chroma_qp_offset=-2 / threads=12 / lookahead_threads=2 / sliced_threads=0 / nr=0 / decimate=1 / interlaced=0 / bluray_compat=0 / constrained_intra=0 / fgo=0 / bframes=8 / b_pyramid=2 / b_adapt=2 / b_bias=0 / direct=3 / weightb=1 / open_gop=0 / weightp=2 / keyint=250 / keyint_min=23 / scenecut=40 / intra_refresh=0 / rc_lookahead=60 / rc=crf / mbtree=1 / crf=14.5000 / qcomp=0.75 / qpmin=0 / qpmax=81 / qpstep=4 / ip_ratio=1.40 / aq=1:0.80 / zones=1651,1710,b=1.5/3076,3219,b=1.5/3823,3882,b=2/4080,4114,b=1.7/14348,14479,b=1.7/14552,14755,b=1.7/20684,20739,b=2/21481,21702,b=1.7/25678,25767,b=1.5/26623,26658,b=2/31908,32039,b=1.5/32856,33005,b=2/34200,34307,b=2/34329,34352,b=2/34545,34649,b=1.7/35287,35331,b=2/35616,35675,b=2/36333,36644,b=2/38961,39068,b=1.5/39351,39410,b=2/39759,39866,b=2/42150,42269,b=2/42642,42772,b=2/42845,42898,b=2/43076,43147,b=2/43325,43414,b=2/45694,45753,b=1.5/47063,47182,b=1.7/47357,47518,b=1.5/48777,48926,b=2/49035,49082,b=2.5/50018,50073,b=2/50740,50894,b=2/54522,54535,b=2/57139,57204,b=2/57713,57769,b=2/58070,58135,b=2/58383,58422,b=1.5/59431,59473,b=2/59933,59962,b=2/60083,60124,b=2/60601,60636,b=2Language : JapaneseDefault : YesForced : NoColor range : LimitedMatrix coefficients : BT.709

AudioID : 2Format : AACFormat/Info : Advanced Audio CodecFormat profile : LCCodec ID : A_AACDuration : 47 min 40 sBit rate : 232 kb/sChannel(s) : 2 channelsChannel positions : Front: L RSampling rate : 48.0 kHzFrame rate : 46.875 FPS (1024 spf)Compression mode : LossyStream size : 79.2 MiB (14%)Language : JapaneseDefault : YesForced : No
GeneralUnique ID : 198991353966355769828025001450334383557 (0x95B45739EFD684D69ABD5494DF1CEDC5)Complete name : Grisaia no Meikyuu [BD] [720p]\Grisaia no Meikyuu Special (BDRip, 720p, AAC).mkvFormat : MatroskaFormat version : Version 4 / Version 2File size : 26.3 MiBDuration : 3mn 27sOverall bit rate : 1 065 KbpsMovie name : Grisaia no Meikyuu - SpecialEncoded date : UTC 2015-11-24 17:37:04Writing application : mkvmerge v8.5.2 ('Crosses') 64bitWriting library : libebml v1.3.3 + libmatroska v1.4.4

VideoID : 1Format : AVCFormat/Info : Advanced Video CodecFormat profile : High 10@L5Format settings, CABAC : YesFormat settings, ReFrames : 12 framesCodec ID : V_MPEG4/ISO/AVCDuration : 3mn 27sWidth : 1 280 pixelsHeight : 720 pixelsDisplay aspect ratio : 16:9Frame rate mode : ConstantFrame rate : 23.976 fpsColor space : YUVChroma subsampling : 4:2:0Bit depth : 10 bitsScan type : ProgressiveWriting library : x264 core 148 r2579kMod 73ae2d1Encoding settings : cabac=1 / ref=12 / deblock=1:0:0 / analyse=0x3:0x133 / me=tesa / subme=11 / psy=1 / fade_compensate=0.00 / psy_rd=0.70:0.00 / mixed_ref=1 / me_range=24 / chroma_me=1 / trellis=2 / 8x8dct=1 / cqm=0 / deadzone=21,11 / fast_pskip=0 / chroma_qp_offset=-2 / threads=12 / lookahead_threads=3 / sliced_threads=0 / nr=0 / decimate=1 / interlaced=0 / bluray_compat=0 / constrained_intra=0 / fgo=0 / bframes=16 / b_pyramid=2 / b_adapt=2 / b_bias=0 / direct=3 / weightb=1 / open_gop=0 / weightp=2 / keyint=250 / keyint_min=23 / scenecut=40 / intra_refresh=0 / rc_lookahead=60 / rc=crf / mbtree=1 / crf=14.0000 / qcomp=0.65 / qpmin=0 / qpmax=81 / qpstep=4 / ip_ratio=1.40 / aq=1:0.80Language : JapaneseDefault : YesForced : NoColor range : LimitedMatrix coefficients : BT.709

AudioID : 2Format : AACFormat/Info : Advanced Audio CodecFormat profile : LCCodec ID : A_AACDuration : 3mn 27sChannel(s) : 2 channelsChannel positions : Front: L RSampling rate : 48.0 KHzCompression mode : LossyLanguage : JapaneseDefault : YesForced : No


Трекер:  [ 13-Дек-2016 01:00 ]

  

Скачать .torrent

Размер .torrent файла 13 KB


Размер: 644 MB
Хэш (hash) релиза: 0ab4cb58a769bf9ec766c03daf0b75e1bae2aea5
Подписка на обновления:

Торренты, похожие на Лабиринт в серых тонах Grisaia no Meikyuu скачать торрент

Форум Название Автор Размер S L Добавлен
Аниме | Rips ·· Воспоминания в серых тонах / Лабиринт в серый тонах / Grisaia no Meikyuu: Caprice no Mayu [Special] [1 из 1] [Без хардсаба] [RUS(int), JAP+SUB] [2015 г., приключения, сэйнэн, драма, HDTVRip] [HWP] Galfimbul 384103007366 MB 0 0 1429778612

11:43

23-Апр-15

Аниме | HD Rips ·· Лабиринт в серых тонах / Grisaia no Meikyuu / The Labyrinth of Grisaia / Le Labyrinthe de la Grisaia (Танака Мотоки) [TV-Special] [1+0 из 1+1] [Без хардсаба] [RUS(ext), JAP+SUB] [2015 г., драма, BDRip] [720p] Galfimbul 608210273580 MB 0 0 1438231685

07:48

30-Июл-15

Аниме | HD Rips ·· Лабиринт в серых тонах / Grisaia no Meikyuu / The Labyrinth of Grisaia / Le Labyrinthe de la Grisaia (Танака Мотоки) [TV-Special] [1+0 из 1+1] [Без хардсаба] [RUS(ext), JAP+SUB] [2015 г., драма, BDRip] [1080p] Galfimbul 10895322051.01 GB 0 0 1438230097

07:21

30-Июл-15

Аниме | HD Rips ·· Лабиринт в серых тонах / Grisaia no Meikyuu (Танака Мотоки) [Special] [Без хардсаба] [1+1 из 1+1] [JAP+SUB] & [1+0 из 1+1] [RUS(ext)] [2015 г., приключения, драма, этти, BDRip] [1080p] Galfimbul 17966148681.67 GB 0 0 1452028239

00:10

6-Янв-16

Аниме | HD Rips ·· Лабиринт в серых тонах / Grisaia no Meikyuu [Special] [Без хардсаба] [1+1 из 1+1] [JAP+SUB] & [1+0 из 1+1] [RUS(int)] [2015 г., психологический, драма, сэйнэн, BDRip] [720p] Galfimbul 675656124644 MB 0 0 1448394426

22:47

24-Ноя-15

Аниме | HD Rips ·· Лабиринт в серых тонах / Grisaia no Meikyuu (Танака Мотоки) [Special] [без хардсаба] [1+1 из 1+1] [JAP+SUB] & [1+0 из 1+1] [RUS(ext)] [2015 г., психологический, драма, сейнен, BDRemux] [1080p] Galfimbul 1187905262111.06 GB 0 0 1439154470

00:07

10-Авг-15

Аниме | HD Rips ·· Лабиринт в серых тонах / Grisaia no Meikyuu (Танака Мотоки) [Special] [1+0 из 1+1] [без хардсаба] [RUS(ext), JAP+SUB] [2015 г., психологический, драма, сейнен, BDRemux] [1080p] Galfimbul 1109778329410.34 GB 0 0 1438550765

00:26

3-Авг-15

Аниме | HD Rips ·· Лабиринт в серых тонах / Воспоминания в серых тонах / Grisaia no Meikyuu [Special] [01 из 01] [Без хардсаба] [JAP+SUB] [2015 г., психологический, драма, сейнен, WEBRip] [1080p] Galfimbul 11437889501.07 GB 0 0 1429539055

17:10

20-Апр-15

Еще никто не оставлял запись к записи скачать торрент Лабиринт в серых тонах Grisaia no Meikyuu . Будь первым!

!Обратная связь