Скачать через торрент музыку Красная черепаха La Tortue Rouge бесплатно без регистрации torrent

Если у вас наблюдаются проблемы со скриншотами, переходом по ссылками, скачиванием торрентов - проблемы в блокировщике рекламы AdBlock. #хорошегоДня!


Статистика раздачи
Размер:  298 MB   |    Зарегистрирован:  9 месяцев   |    .torrent скачан:  23 раза   |   
Раздают:  1  
   
Загрузка...
 
Автор Сообщение

Galfimbul

avatar Galfimbul


La Tortue Rouge / レッドタートル ある島の物語 / The Red Turtle<span class="post-font-serif1">КРАСНАЯ ЧЕРЕПАХА</span>


Название альбома: La Tortue Rouge Edition Prestige Musique Originale
Жанр: Score
Композитор: Laurent Perez Del Mar
Год выпуска диска: 2016 г.
Страна-производитель диска: Франция
Издатель (лейбл): Why Not Productions - Wild Bunch
Аудиокодек: FLAC (*.flac)
Тип рипа: tracks+.cue
Битрейт аудио: lossless
Продолжительность: 00:47:53
Источник: собственный рип
Наличие сканов в содержимом раздачи: да

Треклист:
01. Love in the sky
02. Flying with the turtles
03. The girl
04. The tsunami
05. White hair
06. She is dead
07. The baby
08. Despair
09. Baby's fall
10. L'Au revoir
11. The first raft
12. The red turtle
13. I will stay with you
14. The fall
15. The dream
16. I've found Dad
17. Where is she
18. He has to go
19. Anger
20. Second raft

Об исполнителе (группе): Официальный сайт композитора с фильмографией.
Об альбоме (сборнике): Саундтрек является бонус-диском из коллекционного издания фильма.
Exact Audio Copy V1.0 beta 3 from 29. August 2011

EAC extraction logfile from 5. December 2016, 20:31

Laurent Perez Del Mar / La tortue rouge

Used drive : OPTIARC DVD RW AD-5690H Adapter: 0 ID: 1

Read mode : SecureUtilize accurate stream : YesDefeat audio cache : YesMake use of C2 pointers : No

Read offset correction : 48Overread into Lead-In and Lead-Out : NoFill up missing offset samples with silence : YesDelete leading and trailing silent blocks : NoNull samples used in CRC calculations : YesUsed interface : Native Win32 interface for Win NT & 2000Gap handling : Appended to previous track

Used output format : User Defined EncoderSelected bitrate : 1024 kBit/sQuality : HighAdd ID3 tag : YesCommand line compressor : C:\Program Files (x86)\Exact Audio Copy\Flac\flac.exeAdditional command line options : -V -8 -T "Date=%year%" -T "Genre=%genre%" %source%

TOC of the extracted CD

Track | Start | Length | Start sector | End sector --------------------------------------------------------- 1 | 0:00.00 | 2:31.10 | 0 | 11334 2 | 2:31.10 | 2:23.43 | 11335 | 22102 3 | 4:54.53 | 2:30.23 | 22103 | 33375 4 | 7:25.01 | 3:47.11 | 33376 | 50411 5 | 11:12.12 | 2:57.31 | 50412 | 63717 6 | 14:09.43 | 2:42.21 | 63718 | 75888 7 | 16:51.64 | 3:07.45 | 75889 | 89958 8 | 19:59.34 | 1:43.37 | 89959 | 97720 9 | 21:42.71 | 2:07.34 | 97721 | 107279 10 | 23:50.30 | 4:14.70 | 107280 | 126399 11 | 28:05.25 | 1:28.17 | 126400 | 133016 12 | 29:33.42 | 2:44.69 | 133017 | 145385 13 | 32:18.36 | 3:00.62 | 145386 | 158947 14 | 35:19.23 | 1:34.37 | 158948 | 166034 15 | 36:53.60 | 2:35.13 | 166035 | 177672 16 | 39:28.73 | 1:43.09 | 177673 | 185406 17 | 41:12.07 | 1:15.42 | 185407 | 191073 18 | 42:27.49 | 2:44.40 | 191074 | 203413 19 | 45:12.14 | 1:17.31 | 203414 | 209219 20 | 46:29.45 | 1:24.16 | 209220 | 215535

Track 1

Filename V:\Музыка\Ghibli\The Red Turtle\01. Love in the sky.wav

Pre-gap length 0:00:02.00

Peak level 99.9 % Extraction speed 1.0 X Track quality 100.0 % Test CRC F943B305 Copy CRC F943B305 Accurately ripped (confidence 2) [457E082D] (AR v2) Copy OK

Track 2

Filename V:\Музыка\Ghibli\The Red Turtle\02. Flying with the turtles.wav

Peak level 100.0 % Extraction speed 1.0 X Track quality 100.0 % Test CRC 9FDE80CD Copy CRC 9FDE80CD Accurately ripped (confidence 2) [0D8F18DA] (AR v2) Copy OK

Track 3

Filename V:\Музыка\Ghibli\The Red Turtle\03. The girl.wav

Peak level 99.5 % Extraction speed 1.1 X Track quality 100.0 % Test CRC 8395969C Copy CRC 8395969C Accurately ripped (confidence 2) [17F2E3C9] (AR v2) Copy OK

Track 4

Filename V:\Музыка\Ghibli\The Red Turtle\04. The tsunami.wav

Peak level 100.0 % Extraction speed 1.2 X Track quality 100.0 % Test CRC A6D4E81A Copy CRC A6D4E81A Accurately ripped (confidence 2) [5449AEEE] (AR v2) Copy OK

Track 5

Filename V:\Музыка\Ghibli\The Red Turtle\05. White hair.wav

Peak level 100.0 % Extraction speed 1.2 X Track quality 100.0 % Test CRC 3E50780D Copy CRC 3E50780D Accurately ripped (confidence 2) [5B18752A] (AR v2) Copy OK

Track 6

Filename V:\Музыка\Ghibli\The Red Turtle\06. She is dead.wav

Peak level 98.9 % Extraction speed 1.2 X Track quality 100.0 % Test CRC A412F6B4 Copy CRC A412F6B4 Accurately ripped (confidence 2) [B398F0AC] (AR v2) Copy OK

Track 7

Filename V:\Музыка\Ghibli\The Red Turtle\07. The baby.wav

Peak level 100.0 % Extraction speed 1.4 X Track quality 100.0 % Test CRC 310923F6 Copy CRC 310923F6 Accurately ripped (confidence 2) [5725699B] (AR v2) Copy OK

Track 8

Filename V:\Музыка\Ghibli\The Red Turtle\08. Despair.wav

Peak level 88.6 % Extraction speed 1.2 X Track quality 100.0 % Test CRC FA947E87 Copy CRC FA947E87 Accurately ripped (confidence 2) [5E51CAF2] (AR v2) Copy OK

Track 9

Filename V:\Музыка\Ghibli\The Red Turtle\09. Baby's fall.wav

Peak level 99.1 % Extraction speed 1.1 X Track quality 99.9 % Test CRC 938A9A4B Copy CRC 938A9A4B Accurately ripped (confidence 2) [AE325008] (AR v2) Copy OK

Track 10

Filename V:\Музыка\Ghibli\The Red Turtle\10. L'Au revoir.wav

Peak level 100.0 % Extraction speed 1.4 X Track quality 99.9 % Test CRC B65AB828 Copy CRC B65AB828 Accurately ripped (confidence 2) [DCFF0BAC] (AR v2) Copy OK

Track 11

Filename V:\Музыка\Ghibli\The Red Turtle\11. The first raft.wav

Peak level 98.9 % Extraction speed 1.3 X Track quality 100.0 % Test CRC 788A3E83 Copy CRC 788A3E83 Accurately ripped (confidence 2) [FA58130F] (AR v2) Copy OK

Track 12

Filename V:\Музыка\Ghibli\The Red Turtle\12. The red turtle.wav

Peak level 100.0 % Extraction speed 1.5 X Track quality 100.0 % Test CRC E0E538D1 Copy CRC E0E538D1 Accurately ripped (confidence 2) [0AF2CEF0] (AR v2) Copy OK

Track 13

Filename V:\Музыка\Ghibli\The Red Turtle\13. I will stay with you.wav

Peak level 72.6 % Extraction speed 1.5 X Track quality 100.0 % Test CRC D8EC6E60 Copy CRC D8EC6E60 Accurately ripped (confidence 2) [AD87C2D5] (AR v2) Copy OK

Track 14

Filename V:\Музыка\Ghibli\The Red Turtle\14. The fall.wav

Peak level 79.4 % Extraction speed 1.4 X Track quality 100.0 % Test CRC B8806051 Copy CRC B8806051 Accurately ripped (confidence 2) [65453538] (AR v2) Copy OK

Track 15

Filename V:\Музыка\Ghibli\The Red Turtle\15. The dream.wav

Peak level 100.0 % Extraction speed 1.6 X Track quality 100.0 % Test CRC 100B0FBC Copy CRC 100B0FBC Accurately ripped (confidence 2) [1B534DF6] (AR v2) Copy OK

Track 16

Filename V:\Музыка\Ghibli\The Red Turtle\16. I've found Dad.wav

Peak level 77.1 % Extraction speed 1.5 X Track quality 100.0 % Test CRC AF987C40 Copy CRC AF987C40 Accurately ripped (confidence 2) [EEF1B77D] (AR v2) Copy OK

Track 17

Filename V:\Музыка\Ghibli\The Red Turtle\17. Where is she.wav

Peak level 99.1 % Extraction speed 1.5 X Track quality 100.0 % Test CRC 762C4245 Copy CRC 762C4245 Accurately ripped (confidence 2) [F391C3C7] (AR v2) Copy OK

Track 18

Filename V:\Музыка\Ghibli\The Red Turtle\18. He has to go.wav

Peak level 80.0 % Extraction speed 1.6 X Track quality 100.0 % Test CRC A4D672E2 Copy CRC A4D672E2 Accurately ripped (confidence 2) [DDD99F1E] (AR v2) Copy OK

Track 19

Filename V:\Музыка\Ghibli\The Red Turtle\19. Anger.wav

Peak level 99.7 % Extraction speed 1.4 X Track quality 100.0 % Test CRC 4A9B0BBD Copy CRC 4A9B0BBD Accurately ripped (confidence 2) [29992BBA] (AR v2) Copy OK

Track 20

Filename V:\Музыка\Ghibli\The Red Turtle\20. Second raft.wav

Peak level 79.1 % Extraction speed 1.5 X Track quality 100.0 % Test CRC 421E51D4 Copy CRC 421E51D4 Accurately ripped (confidence 2) [2973CEC6] (AR v2) Copy OK

All tracks accurately ripped

No errors occurred

End of status report

==== Log checksum C7C843B8B2B7DAB59C765C57DAE23DEED3758F9FD61626298D7936A4B6A789C9 ====
REM GENRE SoundtrackREM DATE 2016REM DISCID 000B3914REM COMMENT "ExactAudioCopy v1.0b3"PERFORMER "Laurent Perez Del Mar"TITLE "La tortue rouge"FILE "01. Love in the sky.wav" WAVE TRACK 01 AUDIO TITLE "Love in the sky" PERFORMER "Laurent Perez Del Mar" INDEX 01 00:00:00FILE "02. Flying with the turtles.wav" WAVE TRACK 02 AUDIO TITLE "Flying with the turtles" PERFORMER "Laurent Perez Del Mar" INDEX 01 00:00:00FILE "03. The girl.wav" WAVE TRACK 03 AUDIO TITLE "The girl" PERFORMER "Laurent Perez Del Mar" INDEX 01 00:00:00FILE "04. The tsunami.wav" WAVE TRACK 04 AUDIO TITLE "The tsunami" PERFORMER "Laurent Perez Del Mar" INDEX 01 00:00:00FILE "05. White hair.wav" WAVE TRACK 05 AUDIO TITLE "White hair" PERFORMER "Laurent Perez Del Mar" INDEX 01 00:00:00FILE "06. She is dead.wav" WAVE TRACK 06 AUDIO TITLE "She is dead " PERFORMER "Laurent Perez Del Mar" INDEX 01 00:00:00FILE "07. The baby.wav" WAVE TRACK 07 AUDIO TITLE "The baby" PERFORMER "Laurent Perez Del Mar" INDEX 01 00:00:00FILE "08. Despair.wav" WAVE TRACK 08 AUDIO TITLE "Despair" PERFORMER "Laurent Perez Del Mar" INDEX 01 00:00:00FILE "09. Baby's fall.wav" WAVE TRACK 09 AUDIO TITLE "Baby's fall" PERFORMER "Laurent Perez Del Mar" INDEX 01 00:00:00FILE "10. L'Au revoir.wav" WAVE TRACK 10 AUDIO TITLE "L'Au revoir" PERFORMER "Laurent Perez Del Mar" INDEX 01 00:00:00FILE "11. The first raft.wav" WAVE TRACK 11 AUDIO TITLE "The first raft" PERFORMER "Laurent Perez Del Mar" INDEX 01 00:00:00FILE "12. The red turtle.wav" WAVE TRACK 12 AUDIO TITLE "The red turtle" PERFORMER "Laurent Perez Del Mar" INDEX 01 00:00:00FILE "13. I will stay with you.wav" WAVE TRACK 13 AUDIO TITLE "I will stay with you" PERFORMER "Laurent Perez Del Mar" INDEX 01 00:00:00FILE "14. The fall.wav" WAVE TRACK 14 AUDIO TITLE "The fall" PERFORMER "Laurent Perez Del Mar" INDEX 01 00:00:00FILE "15. The dream.wav" WAVE TRACK 15 AUDIO TITLE "The dream" PERFORMER "Laurent Perez Del Mar" INDEX 01 00:00:00FILE "16. I've found Dad.wav" WAVE TRACK 16 AUDIO TITLE "I've found Dad" PERFORMER "Laurent Perez Del Mar" INDEX 01 00:00:00FILE "17. Where is she.wav" WAVE TRACK 17 AUDIO TITLE "Where is she?" PERFORMER "Laurent Perez Del Mar" INDEX 01 00:00:00FILE "18. He has to go.wav" WAVE TRACK 18 AUDIO TITLE "He has to go" PERFORMER "Laurent Perez Del Mar" INDEX 01 00:00:00FILE "19. Anger.wav" WAVE TRACK 19 AUDIO TITLE "Anger" PERFORMER "Laurent Perez Del Mar" INDEX 01 00:00:00FILE "20. Second raft.wav" WAVE TRACK 20 AUDIO TITLE "Second raft" PERFORMER "Laurent Perez Del Mar" INDEX 01 00:00:00


Трекер:  [ 05-Дек-2016 22:30 ]

  

Скачать .torrent

Размер .torrent файла 13 KB


Размер: 298 MB
Хэш (hash) релиза: eb7c8243f31a38bbe166e26f200e62b8d49359d0

Еще никто не оставлял запись к записи скачать торрент Красная черепаха La Tortue Rouge . Будь первым!

!Обратная связь