Скачать через торрент музыку Красная шапочка Red Riding Hood бесплатно без регистрации torrent

Если у вас наблюдаются проблемы со скриншотами, переходом по ссылками, скачиванием торрентов - проблемы в блокировщике рекламы AdBlock. #хорошегоДня!


Статистика раздачи
Размер:  272 MB   |    Зарегистрирован:  6 лет 3 месяца   |    .torrent скачан:  83 раза   |   
Раздают:  1  
   
Загрузка...
 
Автор Сообщение

L


Красная шапочка / Red Riding Hood

Жанр: Soundtrack
Композитор: Brian Reitzell
Год выпуска диска: 2011
Страна-производитель диска: США

Аудиокодек: FLAC (*.flac)
Тип рипа: tracks+.cue
Битрейт аудио: lossless
Продолжительность: 00:50:04

сайт-источник: what.cd
Наличие сканов в содержимом раздачи: нет

Треклист:
1. Towers of the Void - Brian Reitzell - 2:31
2. Kids - Brian Reitzell & Alex Heffes - 1:52
3. Dead Sister - Brian Reitzell & Alex Heffes - 2:00
4. The Wolf - Fever Ray - 4:39
5. Mt. Grimmor - Brian Reitzell & Alex Heffes - 2:43
6. Tavern Stalker - Brian Reitzell & Alex Heffes - 0:44
7. Grandma's House - Brian Reitzell & Alex Heffes - 1:26
8. Keep the Streets Empty for Me - Fever Ray - 5:34
9. Wolf Attack - Brian Reitzell & Alex Heffes - 5:03
10. Just a Fragment of You - Anthony Gonzales (from M83) & Brian Reitzell - 4:38
11. The Reveal - Brian Reitzell & Alex Heffes - 6:08
12. Finale - Brian Reitzell & Alex Heffes - 1:34
13. Brian Reitzell - End Suite - 5:29
14. Crystal Visions - The Big Pink - 5:47
 
X Lossless Decoder version 20110528 (134.0)

XLD extraction logfile from 2011-06-24 22:02:10 -0700

Various Artists / Red Riding Hood: Original Motion Picture Soundtrack

Used drive : PLEXTOR BDDVDR PX-B310U (revision 1.07)

Ripper mode : CDParanoia III 10.2Disable audio cache : OK for the drive with a cache less than 2750KiBMake use of C2 pointers : NORead offset correction : 6Max retry count : 100Gap status : Analyzed, Appended

TOC of the extracted CD Track | Start | Length | Start sector | End sector --------------------------------------------------------- 1 | 00:00:00 | 02:31:48 | 0 | 11372 2 | 02:31:48 | 01:53:39 | 11373 | 19886 3 | 04:25:12 | 02:00:27 | 19887 | 28913 4 | 06:25:39 | 04:39:26 | 28914 | 49864 5 | 11:04:65 | 02:43:05 | 49865 | 62094 6 | 13:47:70 | 00:44:37 | 62095 | 65431 7 | 14:32:32 | 01:26:13 | 65432 | 71894 8 | 15:58:45 | 05:34:06 | 71895 | 96950 9 | 21:32:51 | 05:02:74 | 96951 | 119674 10 | 26:35:50 | 04:38:48 | 119675 | 140572 11 | 31:14:23 | 06:08:61 | 140573 | 168233 12 | 37:23:09 | 01:34:19 | 168234 | 175302 13 | 38:57:28 | 05:29:66 | 175303 | 200043 14 | 44:27:19 | 05:47:62 | 200044 | 226130

AccurateRip Summary Disc not found in AccurateRip DB.

All Tracks Album gain : -6.89 dB Peak : 1.000000 Statistics Read error : 0 Skipped (treated as error) : 0 Edge jitter error (maybe fixed) : 0 Atom jitter error (maybe fixed) : 0 Drift error (maybe fixed) : 0 Dropped bytes error (maybe fixed) : 0 Duplicated bytes error (maybe fixed) : 0

Track 01 Filename : /Various Artists - Red Riding Hood: Original Motion Picture Soundtrack (2011) [FLAC]/01 - Towers Of The Void.flac Pre-gap length : 00:02:00

Track gain : -1.39 dB Peak : 0.932190 CRC32 hash (test run) : 913E0DF7 CRC32 hash : 913E0DF7 CRC32 hash (skip zero) : 8449CC6B AccurateRip signature : 1286F74E ->Track not present in AccurateRip database. Statistics Read error : 0 Skipped (treated as error) : 0 Edge jitter error (maybe fixed) : 0 Atom jitter error (maybe fixed) : 0 Drift error (maybe fixed) : 0 Dropped bytes error (maybe fixed) : 0 Duplicated bytes error (maybe fixed) : 0 Inconsistency in error sectors : 0

Track 02 Filename : /Various Artists - Red Riding Hood: Original Motion Picture Soundtrack (2011) [FLAC]/02 - Kids.flac

Track gain : -4.74 dB Peak : 1.000000 CRC32 hash (test run) : 876E8C74 CRC32 hash : 876E8C74 CRC32 hash (skip zero) : 117F5945 AccurateRip signature : D122633A ->Track not present in AccurateRip database. Statistics Read error : 0 Skipped (treated as error) : 0 Edge jitter error (maybe fixed) : 0 Atom jitter error (maybe fixed) : 0 Drift error (maybe fixed) : 0 Dropped bytes error (maybe fixed) : 0 Duplicated bytes error (maybe fixed) : 0 Inconsistency in error sectors : 0

Track 03 Filename : /Various Artists - Red Riding Hood: Original Motion Picture Soundtrack (2011) [FLAC]/03 - Dead Sister.flac

Track gain : -0.16 dB Peak : 0.928314 CRC32 hash (test run) : C9D6AB93 CRC32 hash : C9D6AB93 CRC32 hash (skip zero) : 43C78904 AccurateRip signature : D8C7C8B4 ->Track not present in AccurateRip database. Statistics Read error : 0 Skipped (treated as error) : 0 Edge jitter error (maybe fixed) : 0 Atom jitter error (maybe fixed) : 0 Drift error (maybe fixed) : 0 Dropped bytes error (maybe fixed) : 0 Duplicated bytes error (maybe fixed) : 0 Inconsistency in error sectors : 0

Track 04 Filename : /Various Artists - Red Riding Hood: Original Motion Picture Soundtrack (2011) [FLAC]/04 - The Wolf.flac

Track gain : -7.29 dB Peak : 0.943878 CRC32 hash (test run) : 32577E6E CRC32 hash : 32577E6E CRC32 hash (skip zero) : 464E43CE AccurateRip signature : 54C485A3 ->Track not present in AccurateRip database. Statistics Read error : 0 Skipped (treated as error) : 0 Edge jitter error (maybe fixed) : 0 Atom jitter error (maybe fixed) : 0 Drift error (maybe fixed) : 0 Dropped bytes error (maybe fixed) : 0 Duplicated bytes error (maybe fixed) : 0 Inconsistency in error sectors : 0

Track 05 Filename : /Various Artists - Red Riding Hood: Original Motion Picture Soundtrack (2011) [FLAC]/05 - Mt. Grimoor.flac

Track gain : -4.84 dB Peak : 0.943878 CRC32 hash (test run) : 03066A7F CRC32 hash : 03066A7F CRC32 hash (skip zero) : 2D390BF7 AccurateRip signature : CFC0809E ->Track not present in AccurateRip database. Statistics Read error : 0 Skipped (treated as error) : 0 Edge jitter error (maybe fixed) : 0 Atom jitter error (maybe fixed) : 0 Drift error (maybe fixed) : 0 Dropped bytes error (maybe fixed) : 0 Duplicated bytes error (maybe fixed) : 0 Inconsistency in error sectors : 0

Track 06 Filename : /Various Artists - Red Riding Hood: Original Motion Picture Soundtrack (2011) [FLAC]/06 - Tavern Stalker.flac

Track gain : 0.18 dB Peak : 1.000000 CRC32 hash (test run) : A5BB66F3 CRC32 hash : A5BB66F3 CRC32 hash (skip zero) : 881A06EA AccurateRip signature : 70C34AF0 ->Track not present in AccurateRip database. Statistics Read error : 0 Skipped (treated as error) : 0 Edge jitter error (maybe fixed) : 0 Atom jitter error (maybe fixed) : 0 Drift error (maybe fixed) : 0 Dropped bytes error (maybe fixed) : 0 Duplicated bytes error (maybe fixed) : 0 Inconsistency in error sectors : 0

Track 07 Filename : /Various Artists - Red Riding Hood: Original Motion Picture Soundtrack (2011) [FLAC]/07 - Grandma's House.flac

Track gain : 2.25 dB Peak : 0.812286 CRC32 hash (test run) : 42ACCC26 CRC32 hash : 42ACCC26 CRC32 hash (skip zero) : 8D44C708 AccurateRip signature : 41C648E9 ->Track not present in AccurateRip database. Statistics Read error : 0 Skipped (treated as error) : 0 Edge jitter error (maybe fixed) : 0 Atom jitter error (maybe fixed) : 0 Drift error (maybe fixed) : 0 Dropped bytes error (maybe fixed) : 0 Duplicated bytes error (maybe fixed) : 0 Inconsistency in error sectors : 0

Track 08 Filename : /Various Artists - Red Riding Hood: Original Motion Picture Soundtrack (2011) [FLAC]/08 - Unknown Title.flac

Track gain : -5.04 dB Peak : 0.812286 CRC32 hash (test run) : 4F548032 CRC32 hash : 4F548032 CRC32 hash (skip zero) : D85A6F2F AccurateRip signature : 726ACE86 ->Track not present in AccurateRip database. Statistics Read error : 0 Skipped (treated as error) : 0 Edge jitter error (maybe fixed) : 0 Atom jitter error (maybe fixed) : 0 Drift error (maybe fixed) : 0 Dropped bytes error (maybe fixed) : 0 Duplicated bytes error (maybe fixed) : 0 Inconsistency in error sectors : 0

Track 09 Filename : /Various Artists - Red Riding Hood: Original Motion Picture Soundtrack (2011) [FLAC]/09 - Wolf Attack.flac

Track gain : -6.03 dB Peak : 1.000000 CRC32 hash (test run) : 9E807B5B CRC32 hash : 9E807B5B CRC32 hash (skip zero) : EE9C43C2 AccurateRip signature : F693DE7B ->Track not present in AccurateRip database. Statistics Read error : 0 Skipped (treated as error) : 0 Edge jitter error (maybe fixed) : 0 Atom jitter error (maybe fixed) : 0 Drift error (maybe fixed) : 0 Dropped bytes error (maybe fixed) : 0 Duplicated bytes error (maybe fixed) : 0 Inconsistency in error sectors : 0

Track 10 Filename : /Various Artists - Red Riding Hood: Original Motion Picture Soundtrack (2011) [FLAC]/10 - Just A Fragment For You.flac

Track gain : -3.09 dB Peak : 0.921112 CRC32 hash (test run) : 0ED74E90 CRC32 hash : 0ED74E90 CRC32 hash (skip zero) : E8366A9B AccurateRip signature : C86DCE97 ->Track not present in AccurateRip database. Statistics Read error : 0 Skipped (treated as error) : 0 Edge jitter error (maybe fixed) : 0 Atom jitter error (maybe fixed) : 0 Drift error (maybe fixed) : 0 Dropped bytes error (maybe fixed) : 0 Duplicated bytes error (maybe fixed) : 0 Inconsistency in error sectors : 0

Track 11 Filename : /Various Artists - Red Riding Hood: Original Motion Picture Soundtrack (2011) [FLAC]/11 - The Reveal.flac

Track gain : -3.53 dB Peak : 0.998077 CRC32 hash (test run) : 6615AFE5 CRC32 hash : 6615AFE5 CRC32 hash (skip zero) : F5809CD1 AccurateRip signature : 05F2A5BB ->Track not present in AccurateRip database. Statistics Read error : 0 Skipped (treated as error) : 0 Edge jitter error (maybe fixed) : 0 Atom jitter error (maybe fixed) : 0 Drift error (maybe fixed) : 0 Dropped bytes error (maybe fixed) : 0 Duplicated bytes error (maybe fixed) : 0 Inconsistency in error sectors : 0

Track 12 Filename : /Various Artists - Red Riding Hood: Original Motion Picture Soundtrack (2011) [FLAC]/12 - Finale.flac

Track gain : -7.73 dB Peak : 1.000000 CRC32 hash (test run) : BA3B7749 CRC32 hash : BA3B7749 CRC32 hash (skip zero) : E458D45F AccurateRip signature : E0BAF55A ->Track not present in AccurateRip database. Statistics Read error : 0 Skipped (treated as error) : 0 Edge jitter error (maybe fixed) : 0 Atom jitter error (maybe fixed) : 0 Drift error (maybe fixed) : 0 Dropped bytes error (maybe fixed) : 0 Duplicated bytes error (maybe fixed) : 0 Inconsistency in error sectors : 0

Track 13 Filename : /Various Artists - Red Riding Hood: Original Motion Picture Soundtrack (2011) [FLAC]/13 - End Suite.flac

Track gain : 3.94 dB Peak : 0.494293 CRC32 hash (test run) : 8573DC0B CRC32 hash : 8573DC0B CRC32 hash (skip zero) : 7C96791E AccurateRip signature : 7F753002 ->Track not present in AccurateRip database. Statistics Read error : 0 Skipped (treated as error) : 0 Edge jitter error (maybe fixed) : 0 Atom jitter error (maybe fixed) : 0 Drift error (maybe fixed) : 0 Dropped bytes error (maybe fixed) : 0 Duplicated bytes error (maybe fixed) : 0 Inconsistency in error sectors : 0

Track 14 Filename : /Various Artists - Red Riding Hood: Original Motion Picture Soundtrack (2011) [FLAC]/14 - Crystal Visions.flac

Track gain : -9.59 dB Peak : 0.999969 CRC32 hash (test run) : 6FF2E571 CRC32 hash : 6FF2E571 CRC32 hash (skip zero) : ABA47593 AccurateRip signature : 633CD507 ->Track not present in AccurateRip database. Statistics Read error : 0 Skipped (treated as error) : 0 Edge jitter error (maybe fixed) : 0 Atom jitter error (maybe fixed) : 0 Drift error (maybe fixed) : 0 Dropped bytes error (maybe fixed) : 0 Duplicated bytes error (maybe fixed) : 0 Inconsistency in error sectors : 0

No errors occurred

End of status report
 
TITLE "Red Riding Hood: Original Motion Picture Soundtrack"REM GENRE "Soundtrack"REM DATE "2011"REM DISCID E40BC70EREM REPLAYGAIN_ALBUM_GAIN -6.89 dBREM REPLAYGAIN_ALBUM_PEAK 1.000000FILE "01 - Towers Of The Void.flac" WAVE TRACK 01 AUDIO TITLE "Towers Of The Void" PERFORMER "Brian Reitzell" REM REPLAYGAIN_TRACK_GAIN -1.39 dB REM REPLAYGAIN_TRACK_PEAK 0.932190 INDEX 01 00:00:00FILE "02 - Kids.flac" WAVE TRACK 02 AUDIO TITLE "Kids" PERFORMER "Brian Reitzell & Alex Heffes" REM REPLAYGAIN_TRACK_GAIN -4.74 dB REM REPLAYGAIN_TRACK_PEAK 1.000000 INDEX 01 00:00:00FILE "03 - Dead Sister.flac" WAVE TRACK 03 AUDIO TITLE "Dead Sister" PERFORMER "Brian Reitzell & Alex Heffes" REM REPLAYGAIN_TRACK_GAIN -0.16 dB REM REPLAYGAIN_TRACK_PEAK 0.928314 INDEX 01 00:00:00FILE "04 - The Wolf.flac" WAVE TRACK 04 AUDIO TITLE "The Wolf" PERFORMER "Fever Ray" REM REPLAYGAIN_TRACK_GAIN -7.29 dB REM REPLAYGAIN_TRACK_PEAK 0.943878 INDEX 01 00:00:00FILE "05 - Mt. Grimoor.flac" WAVE TRACK 05 AUDIO TITLE "Mt. Grimoor" PERFORMER "Brian Reitzell & Alex Heffes" REM REPLAYGAIN_TRACK_GAIN -4.84 dB REM REPLAYGAIN_TRACK_PEAK 0.943878 INDEX 01 00:00:00FILE "06 - Tavern Stalker.flac" WAVE TRACK 06 AUDIO TITLE "Tavern Stalker" PERFORMER "Brian Reitzell & Alex Heffes" REM REPLAYGAIN_TRACK_GAIN 0.18 dB REM REPLAYGAIN_TRACK_PEAK 1.000000 INDEX 01 00:00:00FILE "07 - Grandma's House.flac" WAVE TRACK 07 AUDIO TITLE "Grandma's House" PERFORMER "Brian Reitzell & Alex Heffes" REM REPLAYGAIN_TRACK_GAIN 2.25 dB REM REPLAYGAIN_TRACK_PEAK 0.812286 INDEX 01 00:00:00FILE "08 - Unknown Title.flac" WAVE TRACK 08 AUDIO PERFORMER "Keep The Streets Empty For Me" REM REPLAYGAIN_TRACK_GAIN -5.04 dB REM REPLAYGAIN_TRACK_PEAK 0.812286 INDEX 01 00:00:00FILE "09 - Wolf Attack.flac" WAVE TRACK 09 AUDIO TITLE "Wolf Attack" PERFORMER "Brian Reitzell & Alex Heffes" REM REPLAYGAIN_TRACK_GAIN -6.03 dB REM REPLAYGAIN_TRACK_PEAK 1.000000 INDEX 01 00:00:00FILE "10 - Just A Fragment For You.flac" WAVE TRACK 10 AUDIO TITLE "Just A Fragment For You" PERFORMER "Anthony Gonzalez from M83 & Brian Reitzell" REM REPLAYGAIN_TRACK_GAIN -3.09 dB REM REPLAYGAIN_TRACK_PEAK 0.921112 INDEX 01 00:00:00FILE "11 - The Reveal.flac" WAVE TRACK 11 AUDIO TITLE "The Reveal" PERFORMER "Brian Reitzell & Alex Heffes" REM REPLAYGAIN_TRACK_GAIN -3.53 dB REM REPLAYGAIN_TRACK_PEAK 0.998077 INDEX 01 00:00:00FILE "12 - Finale.flac" WAVE TRACK 12 AUDIO TITLE "Finale" PERFORMER "Brian Reitzell & Alex Heffes" REM REPLAYGAIN_TRACK_GAIN -7.73 dB REM REPLAYGAIN_TRACK_PEAK 1.000000 INDEX 01 00:00:00FILE "13 - End Suite.flac" WAVE TRACK 13 AUDIO TITLE "End Suite" PERFORMER "Brian Reitzell" REM REPLAYGAIN_TRACK_GAIN 3.94 dB REM REPLAYGAIN_TRACK_PEAK 0.494293 INDEX 01 00:00:00FILE "14 - Crystal Visions.flac" WAVE TRACK 14 AUDIO TITLE "Crystal Visions" PERFORMER "The Big Pink" REM REPLAYGAIN_TRACK_GAIN -9.59 dB REM REPLAYGAIN_TRACK_PEAK 0.999969 INDEX 01 00:00:00
AUDIOCHECKER v2.0 beta (build 457) - by Dester - opdester@freemail.hu
~~~~~~~~~~~~~~~~~~~~~~~~~~~~~~~~~~
-=== DO NOT EDIT THIS FILE! ===-

Path: ...\Various Artists - Red Riding Hood Original Motion Picture Soundtrack (2011) [FLAC]

01 -=- 01 - Brian Reitzell - Towers Of The Void.flac -=- CDDA (100%)
02 -=- 02 - Brian Reitzell & Alex Heffes - Kids.flac -=- CDDA (100%)
03 -=- 03 - Brian Reitzell & Alex Heffes - Dead Sister.flac -=- CDDA (100%)
04 -=- 04 - Fever Ray - The Wolf.flac -=- CDDA (100%)
05 -=- 05 - Brian Reitzell & Alex Heffes - Mt. Grimoor.flac -=- CDDA (100%)
06 -=- 06 - Brian Reitzell & Alex Heffes - Tavern Stalker.flac -=- CDDA (100%)
07 -=- 07 - Brian Reitzell & Alex Heffes - Grandma's House.flac -=- CDDA (99%)
08 -=- 08 - Fever Ray - Keep The Streets Empty For Me.flac -=- CDDA (100%)
09 -=- 09 - Brian Reitzell & Alex Heffes - Wolf Attack.flac -=- CDDA (100%)
10 -=- 10 - Anthony Gonzalez from M83 & Brian Reitzell - Just A Fragment For You.flac -=- CDDA (100%)
11 -=- 11 - Brian Reitzell & Alex Heffes - The Reveal.flac -=- CDDA (100%)
12 -=- 12 - Brian Reitzell & Alex Heffes - Finale.flac -=- CDDA (100%)
13 -=- 13 - Brian Reitzell - End Suite.flac -=- CDDA (100%)
14 -=- 14 - The Big Pink - Crystal Visions.flac -=- CDDA (100%)

Summary 99,93% CDDA

220296308


Трекер:  [ 28-Июн-2011 06:38 ]

  

Скачать .torrent

Размер .torrent файла 12 KB


Размер: 272 MB
Хэш (hash) релиза: 6311b8f25dc2cea082ea811622af4180a598b476

Еще никто не оставлял запись к записи скачать торрент Красная шапочка Red Riding Hood . Будь первым!

!Обратная связь